вход на сайт

Имя пользователя :
Пароль :

Восстановление пароля Регистрация
(2006, сборник) VA - The Greatest Jazz Hits (Jazz) [lossless, FLAC (tracks+.cue)]
Рейтинг:
(голосов: 1)



[img]{THEME}/images/logopost.png[/img]



Сборник
Название: The Greatest Jazz Hits
Год выпуска: 2006
Жанр: Jazz
Формат: FLAC
Битрейт: lossless
Тип битрейта: CBR
Продолжительность: 00:72:15

Tрэклист:▼
1. Jazz Club Highlights (The Greatest Jazz Hits) - Quincy Jones / Pink Panther theme (3:23)
2. Jazz Club Highlights (The Greatest Jazz Hits) - Les McCann / Watermelon man (3:39)
3. Jazz Club Highlights (The Greatest Jazz Hits) - Sarah Vaughan / Fever (2:46)
4. Jazz Club Highlights (The Greatest Jazz Hits) - Willie Bobo / Mercy, mercy, mercy (2:35)
5. Jazz Club Highlights (The Greatest Jazz Hits) - Ray Brown All-Star Big Band / Work song (5:17)
6. Jazz Club Highlights (The Greatest Jazz Hits) - Kai Winding / Cantaloupe island (5:45)
7. Jazz Club Highlights (The Greatest Jazz Hits) - Art Farmer-Benny Golson Jazztet / Killer Joe (4:08)
8. Jazz Club Highlights (The Greatest Jazz Hits) - Ramsey Lewis Trio / The in crowd (5:51)
9. Jazz Club Highlights (The Greatest Jazz Hits) - George Shearing / Lullaby of birdland (3:11)
10. Jazz Club Highlights (The Greatest Jazz Hits) - Ella Fitzgerald / Mack the knife (4:39)
11. Jazz Club Highlights (The Greatest Jazz Hits) - Dave Brubeck Quartet / Take five (9:51)
12. Jazz Club Highlights (The Greatest Jazz Hits) - Milt Buckner / Cute (3:01)
13. Jazz Club Highlights (The Greatest Jazz Hits) - Wes Montgomery / Caravan (2:38)
14. Jazz Club Highlights (The Greatest Jazz Hits) - Johnny Smith / Walk, dont run (3:19)
15. Jazz Club Highlights (The Greatest Jazz Hits) - Toots Thielemans / Bluesette (4:50)
16. Jazz Club Highlights (The Greatest Jazz Hits) - Red Garland / A night in Tunisia (6:56)

Log
▼Exact Audio Copy V0.99 prebeta 4 from 23. January 2008
Отчёт EAC об извлечении, выполненном 2. октября 2008, 10:20
Jazz Club Highlights (The Greatest Jazz Hits) / Jazz Club Highlights (The Greatest Jazz Hits)
Дисковод: Optiarc DVD RW AD-7203S Adapter: 2 ID: 0
Режим чтения : Достоверность
Использование точного потока : Да
Отключение кэша аудио : Да
Использование указателей C2 : Нет
Коррекция смещения при чтении : 48
Способность читать области Lead-in и Lead-out : Нет
Заполнение пропущенных сэмплов тишиной : Да
Удаление блоков с тишиной в начале и конце : Нет
При вычислениях CRC использовались нулевые сэмплы : Да
Интерфейс : Встроенный Win32-интерфейс для Win NT/2000
Выходной формат : Пользовательский кодировщик
Выбранный битрейт : 768 kBit/s
Качество : Высокий
Добавление ID3-тэга : Нет
Утилита сжатия : C:Program FilesExact Audio CopyFLACFLAC.EXE
Дополнительные параметры : -6 -V -T "ARTIST=%a" -T "TITLE=%t" -T "ALBUM=%g" -T "DATE=%y" -T "TRACKNUMBER=%n" -T "GENRE=%m" -T "COMMENT=%e" %s -o %d
TOC извлечённого CD
Трек | Старт | Длительность | Начальный сектор | Конечный сектор
---------------------------------------------------------------------
1 | 0:00.00 | 3:24.19 | 0 | 15318
2 | 3:24.19 | 3:41.42 | 15319 | 31935
3 | 7:05.61 | 2:48.45 | 31936 | 44580
4 | 9:54.31 | 2:37.12 | 44581 | 56367
5 | 12:31.43 | 5:19.20 | 56368 | 80312
6 | 17:50.63 | 5:44.73 | 80313 | 106185
7 | 23:35.61 | 4:07.48 | 106186 | 124758
8 | 27:43.34 | 5:53.58 | 124759 | 151291
9 | 33:37.17 | 3:13.02 | 151292 | 165768
10 | 36:50.19 | 4:41.66 | 165769 | 186909
11 | 41:32.10 | 9:53.63 | 186910 | 231447
12 | 51:25.73 | 3:03.59 | 231448 | 245231
13 | 54:29.57 | 2:40.08 | 245232 | 257239
14 | 57:09.65 | 3:20.08 | 257240 | 272247
15 | 60:29.73 | 4:49.46 | 272248 | 293968
16 | 65:19.44 | 6:55.68 | 293969 | 325161
Характеристики диапазона извлечения и сообщения об ошибках
Выбранный диапазон
Имя файла D:musicThe Greatest Jazz HitsJazz Club Highlights (The Greatest Jazz Hits) - Jazz Club Highlights (The Greatest Jazz Hits).wav
Пиковый уровень 99.8 %
Качество диапазона 100.0 %
CRC копии 9CCFFA44
Копирование... OK
Ошибок не произошло

Подробная информация о треках
▼01. QUINCY JONES: Pink Panther Theme
(Henry Mancini) EMI U Catalog Inc. ® 1964 The Verve Music Group, a Division of UMG Recordings, Inc
d2c6b697e43464ddd020000f6b02f15b181ce0ce(2006, сборник) VA - The Greatest Jazz Hits (Jazz) [lossless, FLAC (tracks+.cue)] (2006, сборник) VA - The Greatest Jazz Hits (Jazz) [lossless, FLAC (tracks+.cue)] " />

Аплоадер: Админ, дата: 22-02-2009, 17:58, торрент скачан: 359 раз

Понравилась раздача? Посмотрите эти:
  • (2013) Da Gudda Jazz / Я из Казахстана (Rap, Hip-Hop) [MP3, 320 kbps/ CBR]
  • (2013) DA GUDDA JAZZ / HIT-HOP (Hip-Hop, Rap) [MP3, 320 kbps/CBR]
  • (2013) Animal ДжаZ / Фаза быстрого сна (Alt.Rock) [MP3, 320/CBR]
  • (2008) Vanessa Mae / Greatest Hits (2CD) (Pop, Classical, Violin) [MP3, 320 ...
  • (1994) Nat King Cole / The Greatest Hits [Capitol] ( Vocal Jazz, Traditiona ...
  • (2011) Nils Landgren / The Moon, The Stars And You (Soul Jazz, Neo-Soul, Ja ...
  • (2007) Louis Armstrong / Super Hits (Jazz) [WMA, 128/CBR]
  • (2012) Club des Belugas / Forward (Nu Jazz, Nu Soul) [Mp3, 320/CBR]
  • (2011) Relaxing Instrumental Jazz Ensemble / Instrumental Music To Love, Sm ...
  • (Сборник, 2008) VA / Worlds Greatest Jazz Collection: Classic Jazz - From N ...
  • (2012) Adele / Greatest Hits (Soul, Indie, Jazz, Pop, Blues) [Mp3 (tracks), ...
  • (2012) Hot Club Of Detroit / Junction (Contemporary Jazz, Modern Jazz) [Mp3 ...
  • (2012) John Di Martinos Romantic Jazz Trio / The Beatles In Jazz 2 (Jazz, P ...
  • (Jazz) LOUIS ARMSTRONG — Louis Armstrongs All Time Greatest Hits — 2003, F ...
  • (2008) VANESSA MAE / Star Mark Greatest Hits [2CD] (Neoclassical / Violin / ...
  • (Сборник, 2008) VA / Worlds Greatest Jazz Collection: Classic Jazz - From N ...
  • (2011) VA / Smooth Jazz and R&B Jamz (R&B/Jazz) [mp3, 256/CBR]
  • (2011) Red Snapper / Key (Jazz, Acid Jazz) [Mp3, 320/CBR]
  • (2011) Eliane Elias / Light My Fire (Vocal Jazz, Latin Jazz, Piano Jazz) [M ...
  • (2011) Ramsey Lewis / Ramsey Taking Another Look (Jazz-Pop, Soul, Crossover ...
  • Информация
    Посетители, находящиеся в группе Гости, не могут оставлять комментарии к данной публикации.