вход на сайт

Имя пользователя :
Пароль :

Восстановление пароля Регистрация
(1991) James Brown - 20 All-Time Greatest Hits![FLAC (tracks+.cue) lossless]
Рейтинг:
(голосов: 1)



[img]{THEME}/images/logopost.png[/img]



Исполнитель: James Brown
Альбом: 20 All-Time Greatest Hits
Год выпуска: 1991
Жанр: Funk/Blues
Формат: Flac
Битрейт:lossless

Продолжительность: 01:10:14

Tрэклист:
▼01. I Got You (I Feel Good) (2:47)
02. Get Up (I Feel Like Being A) Sex Machine, Pt. 1 (5:16)
03. I Got The Feelin (2:38)
04. Mother Popcorn, Pt. 1 (3:16)
05. Give It Up Or Turnit A Loose (3:11)
06. Make It Funky, Pt. 1 (3:16)
07. Papas Got A Brand New Bag, Pt. 1 (2:07)
08. Think (2:46)
09. Its A Mans Mans Mans World (2:48)
10. Try Me (2:30)
11. Night Train (3:31)
12. Cold Sweat, Pt. 1 (2:52)
13. Get On The Good Foot (3:35)
14. Papa Dont Take No Mess, Pt. 1 (4:23)
15. The Payback (7:39)
16. Say It Loud (Im Black And Im Proud), Pt. 1 (2:47)
17. Super Bad, Pts. 1&2 (5:00)
18. Hot Pants, Pt. 1 (3:07)
19. Get Up Offa That Thing (4:10)
20. Please, Please, Please (2:45)


Log EAC(Accurate rip:ok)
▼Exact Audio Copy V0.99 prebeta 4 from 23. January 2008

EAC extraction logfile from 2. August 2008, 13:17

James Brown / 20 All-Time Greatest Hits!

Used drive: TSSTcorpCD/DVDW SH-S182M Adapter: 0ID: 1

Read mode : Secure
Utilize accurate stream : Yes
Defeat audio cache: Yes
Make use of C2 pointers : No

Read offset correction: 6
Overread into Lead-In and Lead-Out: No
Fill up missing offset samples with silence : Yes
Delete leading and trailing silent blocks : No
Null samples used in CRC calculations : Yes
Used interface: Native Win32 interface for Win NT & 2000
Gap handling: Appended to previous track

Used output format: User Defined Encoder
Selected bitrate: 192 kBit/s
Quality : High
Add ID3 tag : No
Command line compressor : C:Program Files (x86)FLACflac.exe
Additional command line options : -V -8 -T "artist=%a" -T "title=%t" -T "album=%g" -T "date=%y" -T "tracknumber=%n" -T "genre=%m" %s


TOC of the extracted CD

Track | Start|Length| Start sector | End sector
---------------------------------------------------------
1|0:00.32 |2:46.40 |32|12521
2|2:46.72 |5:15.63 | 12522|36209
3|8:02.60 |2:38.00 | 36210|48059
bea790987ec93d97df8613ebcefe4faffd4d72a1(1991) James Brown - 20 All-Time Greatest Hits![FLAC (tracks+.cue) lossless] (1991) James Brown - 20 All-Time Greatest Hits![FLAC (tracks+.cue) lossless] " />

Аплоадер: Админ, дата: 24-12-2008, 23:13, торрент скачан: 359 раз

Понравилась раздача? Посмотрите эти:
  • (2010) Schiller / Greatest Hits (2 CD) (Electronic,Downtempo, Trance, Ambi ...
  • (Jazz) LOUIS ARMSTRONG — Louis Armstrongs All Time Greatest Hits — 2003, F ...
  • (2009) QUEEN / Absolute Greatest (Rock) [FLAC (tracks+.cue) lossless]
  • (2009) ONE REPUBLIC / Waking Up (Pop-Rock/Alternative) [FLAC (tracks+.cue) ...
  • (2009) SHAKIRA / She Wolf (US Edition) (Pop) [Flac (tracks+.cue), lossless] ...
  • (2010)Scorpions/Sting In The Tail [FLAC (tracks+cue), lossless]
  • (2010) Deftones / Diamond Eyes (Nu metal / Alternative) [FLAC, (tracks+ cu ...
  • (2008) Pink / Funhouse (Pop) [FLAC (tracks) lossless]
  • (2010) Eminem / Recovery (Rap / Hip-Hop) [FLAC (tracks+.cue) lossless]
  • (2010) Начало / Inception (by Hans Zimmer) (Score) [FLAC (tracks+.cue) loss ...
  • (2010) Michael Jackson - Michael (Pop) [FLAC, (tracks+.cue), lossless]
  • (2010) Bloodhound Gang / Show Us Your Hits (Alternative Rock,Comedy Punk) [ ...
  • (2009) Michael Jackson / The Stripped Mixes (POP) [Flac / Tracks + .cue]
  • (2011) Red Hot Chili Peppers / Im With You (Alternative Rock/Funk) [FLAC (t ...
  • (2011, сборник) ATB / Greatest Hits (Trance) [FLAC (tracks+.сue), lossless] ...
  • (2010) 2Pac / Greatest Hits (Rap & Hip Hop) [APE (image+.cue), lossless]
  • (1991, 4xCD Box Set) James Brown / Star Time (Funk, Soul, Blues, Disco) [FL ...
  • (2010) Ne-Yo / Libra Scale (Japanese Edition) (RnB) [FLAC (tracks+.cue) los ...
  • (2010) Rihanna / Loud (R&B) [FLAC (tracks+.cue), lossless]
  • (2011) Chris Brown / F.A.M.E. (Deluxe Edition) (R&B) [FLAC (tracks+.cue), l ...
  • (1991) James Brown / Star Time (4 CD Edition) (R&B, Soul, Funk) [mp3, 320/C ...
  • (2003) DJ Zinc / Faster (DnB, Breaks) [ FLAC (tracks+.cue), lossless]
  • (2010) Sade / Soldier Of Love ( jazz, soul, blues) [FLAC (tracks) lossless] ...
  • (2010) Morcheeba / Blood Like Lemonade ( Electronic, Downtempo, Pop, Trip-h ...
  • (2011) Yellowcard / Greatest Hits (Japan Edition) (Punk) [FLAC (image+.cue) ...
  • Информация
    Посетители, находящиеся в группе Гости, не могут оставлять комментарии к данной публикации.