вход на сайт

Имя пользователя :
Пароль :

Восстановление пароля Регистрация
(Jazz) LOUIS ARMSTRONG — Louis Armstrongs All Time Greatest Hits — 2003, FLAC (tracks+ cue), lossless, eac&covers
Рейтинг:
(голосов: 1)



[img]{THEME}/images/logopost.png[/img]



Louis Armstrongs All Time Greatest Hits

Производитель диска: USA
Год: 1994
Жанр: Jazz, Big Band, Swing
Лейбл: a MCA company (MCD/MCAD 11032)

Формат: FLAC (image + .cue)
Качество: lossless
Продолжительность: 55:51 мин.
Обложки: включены, 2 Mp
EAC и Audiochecker: присутствует

Трэклист:
01. What A Wonderful World (2:20)
02. Hello Dolly (2:28)
03. Sittin In The Sun (3:01)
04. Mack The Knife (Theme from "Three Penny Opera")) (3:24)
05. A Kiss To Build A Dream On (3:04)
06. It Takes Two To Tango (2:56)
07. That Lucky Old Sun (Just Rolls Around Heaven All Day) (3:07)
08. Kiss Of Fire (3:05)
09. (When We Are Dancin) I Get Ideas (3:28)
10. Gone Fishin (Duet with Bing Crosby) (2:34)
11. Skokiaan (4:59)
12. La Vie En Rose (3:26)
13. The Dummy Song (2:22)
14. Chloe (3:05)
15. I Still Get Jealous (2:14)
16. When Youre Smiling (The Whole World Smiles With You) (4:06)
17. Blueberry Hill (2:54)
18. When Its Sleepy Time Down South (3:16)

EAC-лог:
▼Exact Audio Copy V0.99 prebeta 4 from 23. January 2008

EAC extraction logfile from 11. September 2008, 18:55

Louis Armstrong / All Time Greatest Hits

Used drive: Optiarc DVD RW AD-7173A Adapter: 3ID: 1

Read mode : Secure
Utilize accurate stream : Yes
Defeat audio cache: Yes
Make use of C2 pointers : No

Read offset correction: 48
Overread into Lead-In and Lead-Out: No
Fill up missing offset samples with silence : Yes
Delete leading and trailing silent blocks : No
Null samples used in CRC calculations : Yes
Used interface: Installed external ASPI interface
Gap handling: Appended to previous track

Used output format : Internal WAV Routines
Sample format: 44.100 Hz; 16 Bit; Stereo


TOC of the extracted CD

Track | Start|Length| Start sector | End sector
---------------------------------------------------------
1|0:00.00 |2:20.20 | 0|10519
2|2:20.20 |2:28.20 | 10520|21639
3|4:48.40 |3:01.30 | 21640|35244
4|7:49.70 |3:24.00 | 35245|50544
5| 11:13.70 |3:04.35 | 50545|64379
6| 14:18.30 |2:56.20 | 64380|77599&nb
3c9165cdd8feae2d1354816a337d8b32958d8d3e(Jazz) LOUIS ARMSTRONG — Louis Armstrongs All Time Greatest Hits — 2003, FLAC (tracks+ cue), lossless, eac&covers (Jazz) LOUIS ARMSTRONG — Louis Armstrongs All Time Greatest Hits — 2003, FLAC (tracks+ cue), lossless, eac&covers " />

Аплоадер: Админ, дата: 26-11-2008, 14:29, торрент скачан: 359 раз

Понравилась раздача? Посмотрите эти:
  • (2008) Ella Fitzgerald & Louis Armstrong / Autumn In New York (Vocal Jazz) ...
  • (2012, Сборник) VA / Bar Lounge Deluxe: The Greatest Midnight Jazz Classics ...
  • (2009) Ozzy Osbourne / Greatest Hits (2CD) (Heavy Metal, Hard Rock) [FLAC ( ...
  • (2010) Schiller / Greatest Hits (2 CD) (Electronic,Downtempo, Trance, Ambi ...
  • (2000) Louis Armstrong - Super Hits (Jazz) [MP3, 128 kbps/CBR]
  • (2007) Louis Armstrong / Super Hits (Jazz) [WMA, 128/CBR]
  • (2006) Louis Armstrong / All Time Greatest Hits (Jazz, Blues) [MP3, 320 kbp ...
  • (2008) Ella Fitzgerald & Louis Armstrong / Autumn In New York (Vocal Jazz) ...
  • (1991) James Brown - 20 All-Time Greatest Hits![FLAC (tracks+.cue) lossless ...
  • (2009) QUEEN / Absolute Greatest (Rock) [FLAC (tracks+.cue) lossless]
  • (2009) ONE REPUBLIC / Waking Up (Pop-Rock/Alternative) [FLAC (tracks+.cue) ...
  • (1958) Louis Armstrong / Louis And The Good Book [2001 Remaster] (Jazz, Go ...
  • (2010) Zaz / Zaz (Nu jazz, Chanson, Soul) [FLAC (tracks+.cue), lossless]
  • (2011) Sade / The Ultimate Collection ( Soul, Smooth-Jazz, Pop) [FLAC (trac ...
  • (2011, сборник) ATB / Greatest Hits (Trance) [FLAC (tracks+.сue), lossless] ...
  • (2010, 5CDs Box-set) Various Artists / 100 Hits - Christmas Legends (Big Ba ...
  • (2010) 2Pac / Greatest Hits (Rap & Hip Hop) [APE (image+.cue), lossless]
  • (1993) Крис Кельми / Greatest Hits (Pop-Rock) [FLAC (image+.cue), lossless] ...
  • (2010) Sade / Soldier Of Love ( jazz, soul, blues) [FLAC (tracks) lossless] ...
  • (2011) Yellowcard / Greatest Hits (Japan Edition) (Punk) [FLAC (image+.cue) ...
  • Информация
    Посетители, находящиеся в группе Гости, не могут оставлять комментарии к данной публикации.