вход на сайт

Имя пользователя :
Пароль :

Восстановление пароля Регистрация
(2013) Patricia Barber / Smash (Vocal Jazz, Contemporary Jazz) [FLAC (tracks+.cue), lossless]
Рейтинг:
(голосов: 1)



[img]{THEME}/images/logopost.png[/img]



Исполнитель: Patricia Barber
Страна: США
Альбом: Smash
Тип альбома: Студийный
Год выпуска: 2013
Жанр: Vocal Jazz, Contemporary Jazz
Страна (Издатель, Каталожный номер): США (Concord Jazz Records, CJA-33676-02)
Аудиокодек: FLAC (*.flac)
Тип рипа: tracks+.cue
Битрейт: lossless
Log-файлы: Присутствуют.
Наличие сканов в содержимом раздачи: Нет.
Продолжительность: 00:55:03


Об исполнителе: Американская пианистка, вокалистка и композитор Патрисия Барбер (Patricia Barber) - это авангард новой женской школы джазовых музыкантов. Лет десять-пятнадцать назад ее коллеги по жанру на свой страх и риск начали осваивать ту интригующую территорию импровизации, которая пролегала между классическими балладами и техникой смешения ритмов, создающей новые стандарты. Она была в числе первопроходцев. Сегодня Патрисия Барбер обладает репутацией артистки, жестко отстаивающей свою независимость и уделяющей максимум внимания "творческой пристрелке", тщательной и всесторонней оценке будущего альбома. Ее интуиция в этом смысле непогрешима, а потому неудивительна любовь многочисленных фанов, которые почти за двадцать лет джазовой карьеры появились у Патрисии сначала в родном Чикаго, а затем по всей Америке и далеко за ее пределами. Начиная с середины 80-х, артистка подготовила и издала семь альбомов, на которых представила не только джазовые обработки поп-мелодий и известные стандарты, но и композиции собственного сочинения.


Wikipedia| YouTube | Facebook | Official page

Tреклист:
01. Code Cool (05:21)
02. The Wind Song (03:42)
03. Romanesque (02:24)
04. Smash (04:20)
05. Redshift (04:26)
06. Spring Song (04:41)
07. Devils Food (05:08)
08. Scream (05:45)
09. The Swim (04:25)
10. Bashful (06:11)
11. The Storyteller (03:15)
12. Missing (05:20)

Лог создания рипа (EAC log) ▼TextX Lossless Decoder version 20121222 (142.2)

XLD extraction logfile from 2013-01-22 17:55:14 -0800

Patricia Barber / Smash

Used drive : HL-DT-ST BD-RE BH14NS40 (revision 1.00)
Media type : Pressed CD

Ripper mode : XLD Secure Ripper
Disable audio cache : OK for the drive with a cache less than 1375KiB
Make use of C2 pointers : NO
Read offset correction : 6
Max retry count : 100
Gap status : Analyzed, Appended (except HTOA)

TOC of the extracted CD
Track | Start | Length | Start sector | End sector
---------------------------------------------------------
1 | 00:00:00 | 05:21:32 | 0 | 24106
2 | 05:21:32 | 03:42:61 | 24107 | 40817
3 | 09:04:18 | 02:24:07 | 40818 | 51624
4 | 11:28:25 | 04:20:36 | 51625 | 71160
5 | 15:48:61 | 04:26:24 | 71161 | 91134
6 | 20:15:10 | 04:41:49 | 91135 | 112258
7 | 24:56:59 | 05:08:51 | 112259 | 135409
8 | 30:05:35 | 05:45:62 | 135410 | 161346
9 | 35:51:22 | 04:25:00 | 161347 | 181221
10 | 40:16:22 | 06:11:04 | 181222 | 209050
11 | 46:27:26 | 03:15:42 | 209051 | 223717
12 | 49:42:68 | 0
9aafe080b38e05df7c4912b74a5bbfa8c96c5e1a(2013) Patricia Barber / Smash (Vocal Jazz, Contemporary Jazz) [FLAC (tracks+.cue), lossless] (2013) Patricia Barber / Smash (Vocal Jazz, Contemporary Jazz) [FLAC (tracks+.cue), lossless] " />

Аплоадер: Админ, дата: 8-02-2013, 18:11, торрент скачан: 359 раз

Понравилась раздача? Посмотрите эти:
  • (2013) Gregory Porter / Liquid Spirit (Deluxe Edition) (Vocal Jazz, Soul-Ja ...
  • (2008) Ella Fitzgerald & Louis Armstrong / Autumn In New York (Vocal Jazz) ...
  • (2013) Kanye West | Yeezus (Rap|Experimental Hip-Hop) [FLAC (tracks+.cue), ...
  • (2011, Сборник) VA / Blue Note Jazz Inspiration - Best Of Bar Jazz (Vocal J ...
  • (2013) by M83, Anthony Gonzalez & Joseph Trapanese / Обливион / Oblivion (S ...
  • (2013) David Linx, Diederik Wissels / Winds of Change (Vocal Jazz, Contempo ...
  • (2013) VA / Dalla in Jazz (Jazz, Vocal Jazz) [FLAC (tracks+.cue), lossless] ...
  • (2013, Сборник) VA / Bar Classics 9 (2CD) (Jazz, Vocal Jazz, Easy Listening ...
  • (2013) Paramore / Paramore (Japan Edition) (Alternative Rock) [FLAC (tracks ...
  • (2013) Bullet For My Valentine / Temper Temper (Japanese Deluxe Edition) (M ...
  • (2012) Hot Club Of Detroit / Junction (Contemporary Jazz, Modern Jazz) [Mp3 ...
  • (2012) Norah Jones / Lucca Summer Festival (Blues, Contemporary Jazz, Vocal ...
  • (2010) Katie Melua / The House ( jazz-pop, vocal jazz) [FLAC (tracks + .cu ...
  • (2010) Zaz / Zaz (Nu jazz, Chanson, Soul) [FLAC (tracks+.cue), lossless]
  • (2012) Katie Melua / Secret Symphony (Jazz Pop, Vocal Jazz) [FLAC (tracks+. ...
  • (2012) Norah Jones / Little Broken Hearts (Vocal Jazz, Alternative Rock) [F ...
  • (2012, Сборник) VA / Saxophone Golden Best (Jazz, Smooth Jazz) [FLAC (track ...
  • (2012) Hans Zimmer / The Dark Knight Rises (Film score) [FLAC (tracks+.cu ...
  • (2012) Sally Night / Love For Sale (Vocal Jazz) [FLAC (tracks+.cue), lossle ...
  • (2012) Linkin Park / LP Underground 12 (Alternative Rock) [FLAC (tracks+.cu ...
  • (2012) Holly Cole / Night (Vocal Jazz) [FLAC (tracks+.cue), lossless]
  • (2012) Lucy Durack / Lucy Durack (Pop, Soul, Contemporary Vocal) [FLAC (tra ...
  • (2012) Ne-Yo / R.E.D. (Target Exclusive Edition) (R&B, Soul, Pop) [FLAC (tr ...
  • (2012) Guillaume Perret & The Electric Epic / Guillaume Perret & The Electr ...
  • (2012) Kathy Sanborn / Six Degrees of Cool (Jazz, Vocal Jazz) [Mp3 (tracks) ...
  • Информация
    Посетители, находящиеся в группе Гости, не могут оставлять комментарии к данной публикации.