вход на сайт

Имя пользователя :
Пароль :

Восстановление пароля Регистрация
(2012) Matt Bianco / Hideaway (Japan CD) (Smooth Jazz, Fusion, Latin-Pop) [FLAC (image+.cue), lossless]
Рейтинг:
(голосов: 1)



[img]{THEME}/images/logopost.png[/img]




Исполнитель: Matt Bianco
Альбом: Hideaway
Страна-производитель диска: Japan
Год выпуска: 2012
Жанр: Smooth Jazz, Fusion, Latin-Pop
Издатель (лейбл): Victor Entertainment, Inc. (JVC Kenwood Group)
Номер по каталогу: VICP-65093
Аудиокодек: FLAC (*.flac)
Тип рипа: image+.cue
Битрейт: lossless
Режим рипа: test & copy
Продолжительность: 00:52:00
Источник (релизер): rutracker (vsimonov)
Наличие сканов в содержимом раздачи: да (600 dpi, *jpg)


Tреклист:


01. You Are My Love (Matt Bianco) - (3:55)
02. Too Late For Love (Matt Bianco) - (4:26)
03. Kiss The Bride (Matt Bianco) - (5:07)
04. Medusa (Matt Bianco) - (4:11)
05. Falling (Matt Bianco) - (4:23)
06. The Other Side Of ove (Matt Bianco) - (4:07)
07. Its Just The Way It Goes (Matt Bianco) - (5:44)
08. Youll Never Know (Matt Bianco) - (4:45)
09. Cosmic Samba (Matt Bianco) - (5:11)
10. The Universe (Matt Bianco) - (4:09)
11. Too Late For Love (Matt Bianco) - (4:37)
12. Hideaway (Matt Bianco) - (1:26)

Лог создания рипа ▼TextExact Audio Copy V1.0 beta 3 from 29. August 2011

EAC extraction logfile from 22. February 2013, 12:50

Matt Bianco / Hideaway

Used drive : ATAPI iHBS112 2 Adapter: 3 ID: 0

Read mode : Secure
Utilize accurate stream : Yes
Defeat audio cache : Yes
Make use of C2 pointers : No

Read offset correction : 6
Overread into Lead-In and Lead-Out : No
Fill up missing offset samples with silence : Yes
Delete leading and trailing silent blocks : No
Null samples used in CRC calculations : Yes
Used interface : Native Win32 interface for Win NT & 2000

Used output format : User Defined Encoder
Selected bitrate : 128 kBit/s
Quality : High
Add ID3 tag : No
Command line compressor : C:Program Files (x86)FLACflac.exe
Additional command line options : -V -8 -T "Date=%year%" -T "Genre=%genre%" %source%


TOC of the extracted CD

Track | Start | Length | Start sector | End sector
---------------------------------------------------------
1 | 0:00.00 | 3:54.45 | 0 | 17594
2 | 3:54.45 | 4:26.15 | 17595 | 37559
3 | 8:20.60 | 5:06.65 | 37560 | 60574
4 | 13:27.50 | 4:10.42 | 60575 | 79366
5 | 17:38.17 | 4:23.15 | 79367 | 99106
6 | 22:01.32 | 4:07.00 | 99107 | 117631
7 | 26:08.32 | 5:44.18 | 117632 | 143449
8 | 31:52.50 | 4:44.67 | 143450 | 164816
9 | 36:37.42 | 5:10.38 | 164817 |&
79a52410910c822678cd3431026eab092b9775a9(2012) Matt Bianco / Hideaway (Japan CD) (Smooth Jazz, Fusion, Latin-Pop) [FLAC (image+.cue), lossless] (2012) Matt Bianco / Hideaway (Japan CD) (Smooth Jazz, Fusion, Latin-Pop) [FLAC (image+.cue), lossless] " />

Аплоадер: Админ, дата: 25-02-2013, 22:48, торрент скачан: 359 раз

Понравилась раздача? Посмотрите эти:
  • (1996) George Michael / Older (1st Press Japan) (Electronic, Pop/Rock) [FLA ...
  • (2013) Buddy Guy / Rhythm & Blues (2CD) (Blues) [FLAC (image+.cue), Lossles ...
  • (2013) Paul McCartney / New (Deluxe Edition) (Rock) [FLAC (image,+.cue), lo ...
  • (2012) The Bryan Ferry Orchestra / The Jazz Age (Jazz) [FLAC (image+.cue), ...
  • (2012) Lazlo / Lazlo (Electro Swing, Nu Jazz, Electronic) [FLAC (tracks+.cu ...
  • (2013) Depeche Mode - Heaven (CD Maxi-Single) (Synthpop) [FLAC (image+.cue) ...
  • (1989) Kaoma / Lambada (lambada / latin / ethnic) [FLAC (image+.cue), lossl ...
  • (2008) The Magic Of Nomads / Bulbul Zaman (folk-ethnic / smooth jazz / inst ...
  • (2010) Zaz / Zaz (Nu jazz, Chanson, Soul) [FLAC (tracks+.cue), lossless]
  • (2011) Adele / 21 (Jazz, Lounge, Easy Listening) [FLAC (tracks + .cue), los ...
  • (2011) Sade / The Ultimate Collection ( Soul, Smooth-Jazz, Pop) [FLAC (trac ...
  • (2011) The Prodigy / Worlds On Fire (Big Beat, Rave) [FLAC (image+.cue), lo ...
  • (Дискография, 1988-2011) Kingdom Come (Hard&Heavy,Glam Metal) [FLAC (image+ ...
  • (2012) Katie Melua / Secret Symphony (Jazz Pop, Vocal Jazz) [FLAC (tracks+. ...
  • (2012) DJ Food / The Search Engine (Broken Beat, Electronic) [FLAC (tracks+ ...
  • (2012) Christina Aguilera / The Best (Unofficial) (Pop) [FLAC (image+.cue), ...
  • (2012, Сборник) VA / Saxophone Golden Best (Jazz, Smooth Jazz) [FLAC (track ...
  • (2012) Sally Night / Love For Sale (Vocal Jazz) [FLAC (tracks+.cue), lossle ...
  • (2011) Sam Levine / Smooth Sax Romance (Smooth Jazz) [FLAC (image+.cue), lo ...
  • (2012) Shilts / All Grown Up (Smooth, Jazz-Pop) [FLAC (tracks+.cue), lossle ...
  • (2012) Anneke van Giersbergen / Everything Is Changing (Alternative Rock/Fe ...
  • (2011) Volumes / Via (Progressive Metalcore/Math Metal) [FLAC (image+.cue), ...
  • (2012) Fox / 2012 (Melodic Hard Rock) [FLAC (image +.cue), lossless]
  • (2012) Peter White / Here We Go (Smooth Jazz) [FLAC (tracks+.cue), lossles ...
  • (2012) Game Over / For Humanity (Thrash Metal) [FLAC (image+.cue), lossless ...
  • Информация
    Посетители, находящиеся в группе Гости, не могут оставлять комментарии к данной публикации.