вход на сайт

Имя пользователя :
Пароль :

Восстановление пароля Регистрация
(2013, Сборник) VA / Bar Classics 9 (2CD) (Jazz, Vocal Jazz, Easy Listening) [FLAC (tracks+.cue), lossless]
Рейтинг:
(голосов: 1)



[img]{THEME}/images/logopost.png[/img]



Сборник
Исполнитель: Various Artists
Название сборника: Bar Classics 9 (2CD)
Год выпуска: 2013
Жанр: Jazz, Vocal Jazz, Easy Listening
Страна (Издатель, Каталожный номер): EU (Sony Music, 88765441622)
Штриховой код: 8 87654 41622 3
Аудиокодек: FLAC (*.flac)
Тип рипа: tracks+.cue
Битрейт: lossless
Log-файлы: Присутствуют.
Наличие сканов в содержимом раздачи: Да. (TIF, 350DPI, 105MB)
Продолжительность: 02:23:34


CD #1 - Jazz (FLAC (tracks+.cue), lossless) ▼Продолжительность: 01:16:30

Треклист:
01. Sarah Vaughan - After Hours (2:53)
02. Max Mutzke - Singing My Song For You (4:34)
03. Lisa Ekdahl - Its Oh So Quiet (2:38)
04. Herbie Hancock. Chet Baker - Fair Weather (6:07)
05. Lyambiko - How Long Has This Been Going On (4:49)
06. Jurgen Attig - Sempre (4:14)
07. Steve Tyrell - As Time Goes By (3:59)
08. Chet Baker - Over The Rainbow (3:29)
09. Aretha Franklin - Nobody Like You (2:22)
10. Paul Desmond - Under My Skin (4:33)
11. Triosence - Little Romance (5:37)
12. Jessica Gall - With You I Can Be Me (3:50)
13. Miles Davis - Once Upon A Summertime (3:26)
14. Sonny Rollins - My One And Only Love (6:01)
15. Ray Conniff And His Orchestra - Moonlight Serenade (2:48)
16. The Dave Brubeck Quartet - Who Said That? (3:34)
17. Silje Nergaard - The Moons A Harsh Mistress (5:09)
18. Rosemary Clooney - I Got It Bad (And That Ainґt Good) (3:09)
19. Billy Holiday - Youve Changed (3:18)

Лог создания рипа (EAC log) ▼TextExact Audio Copy V1.0 beta 1 from 15. November 2010

EAC extraction logfile from 23. March 2013, 22:49

Various / Bar Classic 9 CD1 Jazz

Used drive : ASUS DRW-24B3ST Adapter: 1 ID: 2

Read mode : Secure
Utilize accurate stream : Yes
Defeat audio cache : Yes
Make use of C2 pointers : No

Read offset correction : 6
Overread into Lead-In and Lead-Out : No
Fill up missing offset samples with silence : Yes
Delete leading and trailing silent blocks : No
Null samples used in CRC calculations : Yes
Used interface : Native Win32 interface for Win NT & 2000
Gap handling : Appended to previous track

Used output format : User Defined Encoder
Selected bitrate : 896 kBit/s
Quality : High
Add ID3 tag : No
Command line compressor : C:Program Files (x86)Exact Audio CopyFlacflac.exe
Additional command line options : -8 -V -T "ARTIST=%a" -T "TITLE=%t" -T "ALBUM=%g" -T "DATE=%y" -T "TRACKNUMBER=%n" -T "GENRE=%m" -T "COMMENT=ripped by Oleandris" %s

TOC of the extracted CD

Track | Start | Length | Start sector | End sector
---------------------------------------------------------
1 | 0:00.00 | 2:52.53 | 0 | 12952
2 | 2:52.53 | 4:33.70 | 12953 | 33497
3 | 7:26.48 | 2:37.60 | 33498 | 45332
4 | 10:04.33 | 6:06.68 | &
187e1faf3c5ba361604fcc320bca89652394f637(2013, Сборник) VA / Bar Classics 9 (2CD) (Jazz, Vocal Jazz, Easy Listening) [FLAC (tracks+.cue), lossless] (2013, Сборник) VA / Bar Classics 9 (2CD) (Jazz, Vocal Jazz, Easy Listening) [FLAC (tracks+.cue), lossless] " />

Аплоадер: Админ, дата: 14-04-2013, 16:57, торрент скачан: 359 раз

Понравилась раздача? Посмотрите эти:
  • (2013, Сборник) VA / Alle 40 Goed: Easy Listening (2CD) (Easy Listening, Ol ...
  • (2013) Gregory Porter / Liquid Spirit (Deluxe Edition) (Vocal Jazz, Soul-Ja ...
  • (2012) The Bryan Ferry Orchestra / The Jazz Age (Jazz) [FLAC (image+.cue), ...
  • (2013) Hans Zimmer / Человек из стали / Man Of Steel [Deluxe Edition] (2 CD ...
  • (2012) Lazlo / Lazlo (Electro Swing, Nu Jazz, Electronic) [FLAC (tracks+.cu ...
  • (2011, Сборник) VA / Blue Note Jazz Inspiration - Best Of Bar Jazz (Vocal J ...
  • (2012, Сборник) VA / Vintage Cafe 1,2 (4xCD) (Lounge, Lo-Fi, Jazz Blends) [ ...
  • (2013) VA / Dalla in Jazz (Jazz, Vocal Jazz) [FLAC (tracks+.cue), lossless] ...
  • (2012, Сборник) VA / Bar Lounge Deluxe: The Greatest Midnight Jazz Classics ...
  • (2013) Richard Clayderman / Romantique (Easy Listening, Instrumental, Class ...
  • (2010) Zaz / Zaz (Nu jazz, Chanson, Soul) [FLAC (tracks+.cue), lossless]
  • (2011) Adele / 21 (Jazz, Lounge, Easy Listening) [FLAC (tracks + .cue), los ...
  • (2011) Hugh Laurie / Let Them Talk (Blues, Jazz) [FLAC (tracks+.cue), lossl ...
  • (2011) Michael Bublé / Christmas (Limited Edition) (Vocal Jazz, Christmas) ...
  • (2011) Виктория - победительница / Victorious (OST) [FLAC (tracks+.cue), lo ...
  • (2012) Katie Melua / Secret Symphony (Jazz Pop, Vocal Jazz) [FLAC (tracks+. ...
  • (2011) B.B. King / Icon (Blues) [FLAC (tracks+.cue), lossless]
  • (2012, Сборник) VA / The Best Of Lounge 4 (Lounge, Chillout, Jazzy, Downtem ...
  • (2012, Сборник) VA / Saxophone Golden Best (Jazz, Smooth Jazz) [FLAC (track ...
  • (2008, Сборник) VA / Relax Piano - Yesterday - Trai Tim Mua Thu - Vol.7 (Ne ...
  • (2012) Sally Night / Love For Sale (Vocal Jazz) [FLAC (tracks+.cue), lossle ...
  • (2012) Lucy Durack / Lucy Durack (Pop, Soul, Contemporary Vocal) [FLAC (tra ...
  • (2011) Ленинград / Хна (Rock) [FLAC (tracks+.cue), lossless]
  • (2012) Peter White / Here We Go (Smooth Jazz) [FLAC (tracks+.cue), lossles ...
  • (2011) Phinehas / Thegodmachine (Metalcore) [FLAC (tracks+.cue), lossless]
  • Информация
    Посетители, находящиеся в группе Гости, не могут оставлять комментарии к данной публикации.