вход на сайт

Имя пользователя :
Пароль :

Восстановление пароля Регистрация
(2013) VA / Dalla in Jazz (Jazz, Vocal Jazz) [FLAC (tracks+.cue), lossless]
Рейтинг:
(голосов: 1)



[img]{THEME}/images/logopost.png[/img]



Сборник
Исполнитель: Various Artists
Название сборника: Dalla in Jazz
Год выпуска: 2013
Жанр: Jazz, Vocal Jazz
Страна (Издатель, Каталожный номер): EU (Sony Music, Okeh Records, 888837028721)
Аудиокодек: FLAC (*.flac)
Тип рипа: tracks+.cue
Битрейт: lossless
Log-файлы: Присутствуют.
Наличие сканов в содержимом раздачи: Да. (JPG, 300DPI, 5,40MB)
Продолжительность: 01:14:01



Треклист:
01. Luca Aquino e Lucio Dalla - La mer (Charles Trenet) (06:04)
02. Stefano Di Battista - Attenti al lupo (05:52)
03. Giovanni Mirabassi Trio - Quale allegria (06:37)
04. Paolo Fresu - Caruso (04:16)
05. Maria Pia De Vito - Comè profondo il mare (08:19)
06. Flavio Boltro - Washington (04:44)
07. Gegè Telesforo Band - Stronzo (03:09)
08. Trio Girotto Servillo Mangalavite - Felicità (06:07)
09. Enrico Pieranunzi e Simona Severini - Futura (06:40)
10. Aldo Romano - Piazza Grande (03:26)
11. Fabrizio Bosso e Luciano Biondini - Balla balla ballerino (05:54)
12. Roberto Gatto e Max Gazzè - Il cielo (04:43)
13. Nick The Nightfly - Vita (03:09)
14. Vinicio Capossela - Itaca (04:56)

Лог создания рипа (EAC log) ▼TextExact Audio Copy V1.0 beta 3 from 29. August 2011

EAC extraction logfile from 20. March 2013, 13:19

Various Artists / Dalla in jazz

Used drive : TSSTcorpDVDWBD SH-B123L Adapter: 5 ID: 0

Read mode : Secure
Utilize accurate stream : Yes
Defeat audio cache : Yes
Make use of C2 pointers : No

Read offset correction : 6
Overread into Lead-In and Lead-Out : No
Fill up missing offset samples with silence : Yes
Delete leading and trailing silent blocks : No
Null samples used in CRC calculations : Yes
Used interface : Installed external ASPI interface
Gap handling : Appended to previous track

Used output format : User Defined Encoder
Selected bitrate : 1024 kBit/s
Quality : High
Add ID3 tag : No
Command line compressor : C:Program Files (x86)Exact Audio CopyFlacflac.exe
Additional command line options : -8 -V -T "Artist=%artist%" -T "Title=%title%" -T "Album=%albumtitle%" -T "DATE=%year%" -T "TRACKNUMBER=%tracknr%" -T "Genre=%genre%" -T "ALBUMARTIST=%albumartist%" -T "ALBUM ARTIST=%albumartist%" -T "COMMENT=EAC Secure Mode, Test & Copy, AccurateRip, FLAC -8" %source%

TOC of the extracted CD

Track | Start | Length | Start sector | End sector
---------------------------------------------------------
1 | 0:00.00 | 6:04.40 | 0 | 27339
2 | 6:04.40 | 5:52.32 | 27340 | 53771
3 | 11:56.72 | 6:37.04 | 53772 | 83550
4 | 18:34.01 | 4:16.08 | 83551 | 102758
5 | 22:50.09 | 8:19.46 | 102759 | 140229
d238318dcc99f55644f3c6aaa5ceb7f6279cf6ad(2013) VA / Dalla in Jazz (Jazz, Vocal Jazz) [FLAC (tracks+.cue), lossless] (2013) VA / Dalla in Jazz (Jazz, Vocal Jazz) [FLAC (tracks+.cue), lossless] " />

Аплоадер: Админ, дата: 28-04-2013, 15:24, торрент скачан: 359 раз

Понравилась раздача? Посмотрите эти:
  • (2013) Buddy Guy / Rhythm & Blues (2CD) (Blues) [FLAC (image+.cue), Lossles ...
  • (2013) Gregory Porter / Liquid Spirit (Deluxe Edition) (Vocal Jazz, Soul-Ja ...
  • (2012) The Bryan Ferry Orchestra / The Jazz Age (Jazz) [FLAC (image+.cue), ...
  • (2013) Prodigy & The Alchemist / Albert Einstein (Underground Hip-Hop) [FLA ...
  • (2013) Hans Zimmer / Человек из стали / Man Of Steel [Deluxe Edition] (2 CD ...
  • (2012) Lazlo / Lazlo (Electro Swing, Nu Jazz, Electronic) [FLAC (tracks+.cu ...
  • (2013, Сборник) VA / Bar Classics 9 (2CD) (Jazz, Vocal Jazz, Easy Listening ...
  • (2010) Clean Tears / Innerve (Techno, Vocaloid) [FLAC (tracks+.cue), lossle ...
  • (2010) Zaz / Zaz (Nu jazz, Chanson, Soul) [FLAC (tracks+.cue), lossless]
  • (2011) Adele / 21 (Jazz, Lounge, Easy Listening) [FLAC (tracks + .cue), los ...
  • (2011) Michael Bublé / Christmas (Limited Edition) (Vocal Jazz, Christmas) ...
  • (2012) Katie Melua / Secret Symphony (Jazz Pop, Vocal Jazz) [FLAC (tracks+. ...
  • (2011) B.B. King / Icon (Blues) [FLAC (tracks+.cue), lossless]
  • (2012) Marconi Union / Different Colours (Post Rock, Downtempo, Ambient) [F ...
  • (2012, Сборник) VA / Saxophone Golden Best (Jazz, Smooth Jazz) [FLAC (track ...
  • (2008, Сборник) VA / Relax Piano - Yesterday - Trai Tim Mua Thu - Vol.7 (Ne ...
  • (2012) Tomandandy / Resident Evil: Retribution (Score, Soundtrack)[FLAC (tr ...
  • (2012) Sally Night / Love For Sale (Vocal Jazz) [FLAC (tracks+.cue), lossle ...
  • (2012) Lucy Durack / Lucy Durack (Pop, Soul, Contemporary Vocal) [FLAC (tra ...
  • (2012) Shilts / All Grown Up (Smooth, Jazz-Pop) [FLAC (tracks+.cue), lossle ...
  • (1996) The Rasmus / Peep (Finnish Version) (Alternative Rock) [FLAC (tracks ...
  • (2011) Mistabishi / Trip (Drum & Bass, Breakbeat) [FLAC (tracks+.cue), loss ...
  • (2012) Les Friction / Les Friction (Alt. Rock/Neo-Classical/Orchestral) [FL ...
  • (2011) SeeS / The enD (Progressive/Math Metal) [FLAC (tracks+.cue), lossles ...
  • (2012) Peter White / Here We Go (Smooth Jazz) [FLAC (tracks+.cue), lossles ...
  • Информация
    Посетители, находящиеся в группе Гости, не могут оставлять комментарии к данной публикации.