вход на сайт

Имя пользователя :
Пароль :

Восстановление пароля Регистрация
(2011, Сборник) VA / Cool Jazz - The Coolest Jazz Selection (2CD) (Cool Jazz, Vocal Jazz, Post-Bop, Latin Jazz, Jazz Fusion) [FLAC (image+.cue), lossless]
Рейтинг:
(голосов: 1)



[img]{THEME}/images/logopost.png[/img]



Сборник
Исполнитель: Various Artists
Название сборника: Cool Jazz - The Coolest Jazz Selection (2CD)
Год выпуска: 2011
Жанр: Cool Jazz, Vocal Jazz, Post-Bop, Latin Jazz, Jazz Fusion
Страна (Издатель, Каталожный номер): Франция (Wagram Music, 3251792)
Штриховой код: 3 596972 517921
Аудиокодек: FLAC (*.flac)
Тип рипа: image+.cue
Битрейт: lossless
Log-файлы: Присутствуют.
Наличие сканов в содержимом раздачи: Да. (JPG, 600DPI, 53,2MB)
Продолжительность: 02:36:40


CD #1 (FLAC (image+.cue), lossless) ▼Продолжительность: 01:18:37

Треклист:
01. Michael Buble - Anyone To Love (2:06)
02. Youn Sun Nah - My Name Is Carnival (3:59)
03. Norah Jones feat Joel Harrison - Tenesee Waltz (4:21)
04. Marcus Miller feat Raul Midon - State of Mid (6:13)
05. Musica Nuda feat Erik Truffaz - Take A Bow (3:19)
06. Elisabeth Kontomanou - Youre My Thrill (3:26)
07. Nils Landgren - I Will Survive (4:03)
08. Jessica Pilnas feat Johan Norberg & Dan Berglund - Hurry (3:53)
09. Laika Fatien - Throw It Away (3:39)
10. Ahmad Jamal - Arabesque (3:57)
11. Terez Montcalm - Be Anything (4:14)
12. Alex Pangman - As Lovely Lovers Do (3:25)
13. Also Romano - Silenzio (4:42)
14. Susie Arioli - Blue Prelude (3:12)
15. Lucy Dixon feat Le Professeur Inlassable, Sebastien Gastine & Arnaud Biscay - Better Way (3:59)
16. Remi Panossian Trio - Two Girls (4:04)
17. Ida Sand - Aint No Sunshine (3:42)
18. Bebel Gilberto - O Caminho (2:59)
19. Anne Ducros - Sexy Sadie (3:52)
20. Diana Krall - Body And Soul (5:31)

Лог создания рипа (EAC log) ▼TextExact Audio Copy V0.99 prebeta 5 from 4. May 2009

Отчёт EAC об извлечении, выполненном 14. ноября 2012, 15:30

Various Artists / Cool Jazz (CD 1)

Дисковод: PIONEER DVD-RW DVR-218L Adapter: 0 ID: 0

Режим чтения : Достоверность
Использование точного потока : Да
Отключение кэша аудио : Да
Использование указателей C2 : Нет

Коррекция смещения при чтении : 6
Способность читать области Lead-in и Lead-out : Нет
Заполнение пропущенных сэмплов тишиной : Да
Удаление блоков с тишиной в начале и конце : Нет
При вычислениях CRC использовались нулевые сэмплы : Да
Интерфейс : Встроенный Win32-интерфейс для Win NT/2000

Выходной формат : Пользовательский кодировщик
Выбранный битрейт : 128 kBit/s
Качество : Высокий
Добавление ID3-тэга : Нет
Утилита сжатия : C:Program Files (x86)Exact Audio CopyFlacflac.exe
Дополнительные параметры : -5 -V -T "ARTIST=%a" -T "TITLE=%t" -T "ALBUM=%g" -T "DATE=%y" -T "TRACKNUMBER=%n" -T "GENRE=%m" -T "COMMENT=EAC FLAC -5" %s

TOC извлечённого CD

Трек | Старт | Длительность | Начальный сектор | Конечный сектор
---------------------------------------------------------------------
1 | 0:00.00 | 2:06.10 | 0 | 9459
2 | 2:06.10 | 3:58.40 | 9460 | 27349
3 | 6:04.50 | 4:21.05 | 27350 | 46929
&n
0b4c94a668e557378cb9a6bfb1f90e450f02ff38(2011, Сборник) VA / Cool Jazz - The Coolest Jazz Selection (2CD) (Cool Jazz, Vocal Jazz, Post-Bop, Latin Jazz, Jazz Fusion) [FLAC (image+.cue), lossless] (2011, Сборник) VA / Cool Jazz - The Coolest Jazz Selection (2CD) (Cool Jazz, Vocal Jazz, Post-Bop, Latin Jazz, Jazz Fusion) [FLAC (image+.cue), lossless] " />

Аплоадер: Админ, дата: 16-05-2013, 14:36, торрент скачан: 359 раз

Понравилась раздача? Посмотрите эти:
  • (2012) The Bryan Ferry Orchestra / The Jazz Age (Jazz) [FLAC (image+.cue), ...
  • (2011, Сборник) VA / Blue Note Jazz Inspiration - Best Of Bar Jazz (Vocal J ...
  • (2013) VA / Dalla in Jazz (Jazz, Vocal Jazz) [FLAC (tracks+.cue), lossless] ...
  • (2013) DA GUDDA JAZZ / HIT-HOP (Hip-Hop, Rap) [MP3, 320 kbps/CBR]
  • (2013, Сборник) VA / Bar Classics 9 (2CD) (Jazz, Vocal Jazz, Easy Listening ...
  • (2013) Animal ДжаZ / Фаза быстрого сна (Alt.Rock) [MP3, 320/CBR]
  • (2012) Matt Bianco / Hideaway (Japan CD) (Smooth Jazz, Fusion, Latin-Pop) [ ...
  • (2011) Nils Landgren / The Moon, The Stars And You (Soul Jazz, Neo-Soul, Ja ...
  • (2011) Relaxing Instrumental Jazz Ensemble / Instrumental Music To Love, Sm ...
  • (2012) John Di Martinos Romantic Jazz Trio / The Beatles In Jazz 2 (Jazz, P ...
  • (2006, сборник) VA - The Greatest Jazz Hits (Jazz) [lossless, FLAC (tracks+ ...
  • (2010) Zaz / Zaz (Nu jazz, Chanson, Soul) [FLAC (tracks+.cue), lossless]
  • (2007) VA / Coffee Time Jazz (Smooth Jazz, Big Band, Latin Jazz) [FLAC (ima ...
  • (2011) VA / Bar Jazz (Swing, Vocal Jazz, Trad Jazz) [FLAC (image+.cue), los ...
  • (1997) Jazz Cafe / Simple Pleasures (Jazz, instrumental) [FLAC (image+.сue ...
  • (2012) Katie Melua / Secret Symphony (Jazz Pop, Vocal Jazz) [FLAC (tracks+. ...
  • (2006, сборник) VA / The Kings of Jazz (Bop, Soul-Jazz, Future Jazz, Acid J ...
  • (2008, 3xCD Box Set) Nina Simone / To Be Free. The Nina Simone Story (Jazz, ...
  • (2012, Сборник) VA / Saxophone Golden Best (Jazz, Smooth Jazz) [FLAC (track ...
  • (2012) Sally Night / Love For Sale (Vocal Jazz) [FLAC (tracks+.cue), lossle ...
  • (2012) Gary Clark Jr. / Blak and Blu (Blues, Rock) [FLAC (image+.cue), loss ...
  • (1988) Fausto Papetti / Grand Collection (POP, Jazz) [FLAC (image+.cue), lo ...
  • (2011) Eliane Elias / Light My Fire (Vocal Jazz, Latin Jazz, Piano Jazz) [M ...
  • (2007, 4xCD Box Set) VA / Simply Brazil (Bossa Nova, Brazilian Jazz, Samba ...
  • (2012) Kathy Sanborn / Six Degrees of Cool (Jazz, Vocal Jazz) [Mp3 (tracks) ...
  • Информация
    Посетители, находящиеся в группе Гости, не могут оставлять комментарии к данной публикации.