вход на сайт

Имя пользователя :
Пароль :

Восстановление пароля Регистрация
(2013) Harry Connick, Jr. / Smokey Mary (Vocal Jazz, Funk) [FLAC (image+.cue), lossless]
Рейтинг:
(голосов: 1)



[img]{THEME}/images/logopost.png[/img]



Исполнитель: Harry Connick, Jr.
Страна: США
Альбом: Smokey Mary
Тип альбома: Студийный
Год выпуска: 2013
Жанр: Vocal Jazz, Funk
Аудиокодек: FLAC (*.flac)
Тип рипа: image+.cue
Битрейт: lossless
Продолжительность: 00:44:40

Дополнительная информация:▼О релизе:
- Страна (Издатель, Каталожный номер): США (Columbia Records, 88765 44698 2)
- Штриховой код: 8 8765-44698-2 3
- Log-файлы: Присутствуют
- Наличие сканов в содержимом раздачи: Да. (JPG, 600DPI, 132MB)

Об исполнителе: Гарри Конник-мл. (англ. Harry Connick Jr.; родился 11 сентября 1967) — американский актёр, певец (крунер), джазовый пианист, автор песен и композиций для биг-бэнда. В 1989-1998 гг. активно выступал в качестве солиста и руководителя джаз-оркестра, записал несколько альбомов в стиле свинг и саундтреки к фильмам, в работе над которыми принял участие аранжировщик Марк Шайман. В конце 90-х гг. сосредоточился на работе в кино.


Wikipedia | YouTube | Facebook | Official page

Tреклист:
[03:43] 01. Smokey Mary
[03:35] 02. Hurricane
[04:04] 03. Cuddina Done It
[03:12] 04. Wish I Were Him
[03:37] 05. Spposed To Be
[04:53] 06. The Preacher
[03:28] 07. Dang You Pretty
[04:04] 08. Angola (At The Farm)
[03:53] 09. Nola Girl
[04:09] 10. Mind On The Matter
[05:57] 11. City Beneath The Sea

Лог создания рипа (EAC log) ▼TextExact Audio Copy V1.0 beta 2 from 29. April 2011

EAC extraction logfile from 4. August 2013, 21:41

Harry Connick, Jr. / Smokey Mary

Used drive : HL-DT-STBD-RE BH14NS40 Adapter: 0 ID: 2

Read mode : Secure
Utilize accurate stream : Yes
Defeat audio cache : Yes
Make use of C2 pointers : No

Read offset correction : 6
Overread into Lead-In and Lead-Out : No
Fill up missing offset samples with silence : Yes
Delete leading and trailing silent blocks : No
Null samples used in CRC calculations : Yes
Used interface : Native Win32 interface for Win NT & 2000

Used output format : User Defined Encoder
Selected bitrate : 1024 kBit/s
Quality : High
Add ID3 tag : No
Command line compressor : C:Program Files (x86)Exact Audio CopyFlacflac.exe
Additional command line options : -V -5 -T "artist=%albumartist%" -T "title=%title%" -T "album=%albumtitle%" -T "date=%year%" -T "genre=%genre%" -T "tracknumber=%tracknr%" %source%

TOC of the extracted CD

Track | Start | Length | Start sector | End sector
---------------------------------------------------------
1 | 0:00.21 | 3:43.25 | 21 | 16770
2 | 3:43.46 | 3:35.57 | 16771 | 32952
3 | 7:19.28 | 4:04.07 | 32953 | 51259
4 | 11:23.35 | 3:12.45 | 51260 | 65704
5 | 14:36.05 | 3:37.46 | 65705 | 82025
6 | 18:13.51 | 4:53.40 | 82026 | &n
eb1217006f94e9273c26e8dffc8a91e7597830e0(2013) Harry Connick, Jr. / Smokey Mary (Vocal Jazz, Funk) [FLAC (image+.cue), lossless] (2013) Harry Connick, Jr. / Smokey Mary (Vocal Jazz, Funk) [FLAC (image+.cue), lossless] " />

Аплоадер: Админ, дата: 16-08-2013, 21:51, торрент скачан: 359 раз

Понравилась раздача? Посмотрите эти:
  • (2013) The Holmes Brothers / Brotherhood (Modern Electric Blues, Soul, Gosp ...
  • (2013) Buddy Guy / Rhythm & Blues (2CD) (Blues) [FLAC (image+.cue), Lossles ...
  • (2013) Innes Sibun / Lost In The Wilderness (Blues Rock, Rock) [FLAC (image ...
  • (2013) The Hamburg Blues Band / Friends For A LIVEtime (Blues Rock, Rock) [ ...
  • (2013) Leslie West / Still Climbing (Rock, Hard Rock, Blues Rock) [FLAC (im ...
  • (2013) Paul McCartney / New (Deluxe Edition) (Rock) [FLAC (image,+.cue), lo ...
  • (2013) Elton John / The Diving Board (Rock, Pop Rock) [FLAC (image+.cue), L ...
  • (2013) Govt Mule / Shout! (2CD) (Blues Rock) [FLAC (image+.cue), Lossless]
  • (2012) The Bryan Ferry Orchestra / The Jazz Age (Jazz) [FLAC (image+.cue), ...
  • (2012) Lazlo / Lazlo (Electro Swing, Nu Jazz, Electronic) [FLAC (tracks+.cu ...
  • (2013) VA / Dalla in Jazz (Jazz, Vocal Jazz) [FLAC (tracks+.cue), lossless] ...
  • (2013, Сборник) VA / Bar Classics 9 (2CD) (Jazz, Vocal Jazz, Easy Listening ...
  • (2013) Alizee / 5 (French Pop) [FLAC (image+.cue), lossless]
  • (2010) Clean Tears / Innerve (Techno, Vocaloid) [FLAC (tracks+.cue), lossle ...
  • (2010) Zaz / Zaz (Nu jazz, Chanson, Soul) [FLAC (tracks+.cue), lossless]
  • (2011) Linkin Park / LP Underground 11 (Alternative Rock) [FLAC (Image+cue) ...
  • (2012) Katie Melua / Secret Symphony (Jazz Pop, Vocal Jazz) [FLAC (tracks+. ...
  • (2012, Сборник) VA / Saxophone Golden Best (Jazz, Smooth Jazz) [FLAC (track ...
  • (2012) Sally Night / Love For Sale (Vocal Jazz) [FLAC (tracks+.cue), lossle ...
  • (2012) Rod Stewart / Merry Christmas, Baby (Deluxe Edition) (Jazz) [FLAC (i ...
  • (2012) Lucy Durack / Lucy Durack (Pop, Soul, Contemporary Vocal) [FLAC (tra ...
  • (1996) The Rasmus / Peep (Finnish Version) (Alternative Rock) [FLAC (tracks ...
  • (2011) SeeS / The enD (Progressive/Math Metal) [FLAC (tracks+.cue), lossles ...
  • (2012) Anneke van Giersbergen / Everything Is Changing (Alternative Rock/Fe ...
  • (2011) Volumes / Via (Progressive Metalcore/Math Metal) [FLAC (image+.cue), ...
  • Информация
    Посетители, находящиеся в группе Гости, не могут оставлять комментарии к данной публикации.