вход на сайт

Имя пользователя :
Пароль :

Восстановление пароля Регистрация
(2012) Lazlo / Lazlo (Electro Swing, Nu Jazz, Electronic) [FLAC (tracks+.cue), lossless]
Рейтинг:
(голосов: 1)



[img]{THEME}/images/logopost.png[/img]



Исполнитель: Lazlo
Альбом: Lazlo
Тип альбома: Студийный
Год выпуска: 2012
Жанр: Electro Swing, Nu Jazz, Electronic
Страна (Издатель, Каталожный номер): Germany (Chinchin records - AC 2077)
Аудиокодек: FLAC (*.flac)
Тип рипа: tracks+.cue
Битрейт: lossless
Продолжительность: 01:09:31
Наличие сканов в содержимом раздачи: Нет
Tреклист:
01. Lazlo - Sucette [04:33]
02. Lazlo - Bowling For A Week [05:49]
03. Lazlo - Les Yeux Noirs (Lazlo Remix) [04:45]
04. Lazlo - How High The Moon (Lazlo Remix) [05:15]
05. Lazlo - The Ska Was Pink [05:34]
06. Lazlo - The Minor Drags (Lazlo Remix) [03:35]
07. Lazlo - Topsy (Lazlo Remix) [05:18]
08. Lazlo - Busy Line (Lazlo Remix) [04:16]
09. Lazlo - Ive Got A Gal In Kalamazoo (Lazlo Remix) [05:02]
10. Lazlo - Ragtime 2.0 [04:54]
11. Lazlo - Dixie [04:08]
12. Lazlo - Beautiful Peolpe [05:02]
13. Lazlo - Stomping At Studio 54 [04:17]
14. Lazlo - It Dont Mean A Thing (If It Aint Got That Swing) (Lazlo & NTo Remix) [06:57]
Лог создания рипа ▼TextExact Audio Copy V1.0 beta 3 from 29. August 2011
EAC extraction logfile from 17. March 2012, 22:11
Lazlo / Lazlo
Used drive : PIONEER DVR-113NP Adapter: 1 ID: 0
Read mode : Secure
Utilize accurate stream : Yes
Defeat audio cache : Yes
Make use of C2 pointers : No
Read offset correction : 6
Overread into Lead-In and Lead-Out : No
Fill up missing offset samples with silence : Yes
Delete leading and trailing silent blocks : No
Null samples used in CRC calculations : Yes
Used interface : Native Win32 interface for Win NT & 2000
Gap handling : Appended to previous track
Used output format : User Defined Encoder
Selected bitrate : 1024 kBit/s
Quality : High
Add ID3 tag : No
Command line compressor : C:Program FilesFLACflac.exe
Additional command line options : -8 -V -T "ARTIST=%artist%" -T "TITLE=%title%" -T "ALBUM=%albumtitle%" -T "DATE=%year%" -T "TRACKNUMBER=%tracknr%" -T "GENRE=%genre%" -T "PERFORMER=%albuminterpret%" -T "COMPOSER=%composer%" %haslyrics%--tag-from-file=LYRICS="%lyricsfile%"%haslyrics% -T "ALBUMARTIST=%albumartist%" -T "DISCNUMBER=%cdnumber%" -T "TOTALDISCS=%totalcds%" -T "TOTALTRACKS=%numtracks%" -T "COMMENT=%comment%" %source% -o %dest%
TOC of the extracted CD
Track | Start | Length | Start sector | End sector
---------------------------------------------------------
1 | 0:00.00 | 4:33.30 | 0 | 20504
2 | 4:33.30 | 5:49.05 | 20505 | 46684
3 | 10:22.35 | 4:45.38 | 46685 | 68097
4 | 15:07.73 | 5:15.70 | 68098 | 91792
5 | 20:23.68 | 5:34.02 | 91793 | 116844
6 | 2
82a08c8e47016cb144c2a57350925396cce631ff(2012) Lazlo / Lazlo (Electro Swing, Nu Jazz, Electronic) [FLAC (tracks+.cue), lossless] (2012) Lazlo / Lazlo (Electro Swing, Nu Jazz, Electronic) [FLAC (tracks+.cue), lossless] " />

Аплоадер: Админ, дата: 14-08-2013, 12:40, торрент скачан: 359 раз

Понравилась раздача? Посмотрите эти:
  • (2013) Buddy Guy / Rhythm & Blues (2CD) (Blues) [FLAC (image+.cue), Lossles ...
  • (2013) Paul McCartney / New (Deluxe Edition) (Rock) [FLAC (image,+.cue), lo ...
  • (2013) Prodigy & The Alchemist / Albert Einstein (Underground Hip-Hop) [FLA ...
  • (2012) Signum / Remixed (Trance) [FLAC (tracks+.cue), Lossless]
  • (2010) Clean Tears / Innerve (Techno, Vocaloid) [FLAC (tracks+.cue), lossle ...
  • (2011) Disturbed / The Lost Children (Alternative Metal) [FLAC (tracks+.cue ...
  • (2012) Katie Melua / Secret Symphony (Jazz Pop, Vocal Jazz) [FLAC (tracks+. ...
  • (2012) Mark Lanegan Band / Blues Funeral (Alternative Rock/Blues Rock) [FLA ...
  • (2012) Paul Van Dyk / Evolution (Progressive House, Trance) [FLAC (tracks+. ...
  • (2012) Marconi Union / Different Colours (Post Rock, Downtempo, Ambient) [F ...
  • (2008, Сборник) VA / Relax Piano - Yesterday - Trai Tim Mua Thu - Vol.7 (Ne ...
  • (2012) Tomandandy / Resident Evil: Retribution (Score, Soundtrack)[FLAC (tr ...
  • (2012) Sally Night / Love For Sale (Vocal Jazz) [FLAC (tracks+.cue), lossle ...
  • (1996) The Rasmus / Peep (Finnish Version) (Alternative Rock) [FLAC (tracks ...
  • (2012) Usher / Looking 4 Myself (Deluxe Version) (R&B, Soul) [FLAC (tracks+ ...
  • (2011) Mistabishi / Trip (Drum & Bass, Breakbeat) [FLAC (tracks+.cue), loss ...
  • (2012) Buckethead / Electric Sea (Experimental/Acoustic/Ambient/Rock) [FLAC ...
  • (2012) Les Friction / Les Friction (Alt. Rock/Neo-Classical/Orchestral) [FL ...
  • (2011) SeeS / The enD (Progressive/Math Metal) [FLAC (tracks+.cue), lossles ...
  • (2012) Bleeding Through / The Great Fire (Symphonic Metalcore/Hardcore) [FL ...
  • (2012) Our Lady Peace / Curve (Alternative/Rock) [FLAC (tracks+.cue), lossl ...
  • (2012) Nine Lashes / World We View (Alt.Rock/Alt.Metal/Christian) [FLAC (tr ...
  • (2012) Dash Berlin / #musicislife (Trance) [FLAC (tracks+.сue), lossless]
  • (2012) For Today / Immortal (Metalcore, Hardcore, Christian) [FLAC (tracks+ ...
  • (2012) Laid Back / Cosmic Vibes (Electronic, Pop, Electro, Downtempo) [FLAC ...
  • Информация
    Посетители, находящиеся в группе Гости, не могут оставлять комментарии к данной публикации.