вход на сайт

Имя пользователя :
Пароль :

Восстановление пароля Регистрация
(2012) The Bryan Ferry Orchestra / The Jazz Age (Jazz) [FLAC (image+.cue), lossless]
Рейтинг:
(голосов: 1)



[img]{THEME}/images/logopost.png[/img]



Исполнитель: The Bryan Ferry Orchestra
Страна: England
Альбом: The Jazz Age
Тип альбома: Студийный
Год выпуска: 2012
Жанр: Jazz
Страна (Издатель, Каталожный номер): UK-Holland (BMG, 53800759)
Аудиокодек: FLAC (*.flac)
Тип рипа: image+.cue
Битрейт: lossless
Продолжительность: 00:37:48

Об исполнителе (об издании): Bryan Ferry - известный музыкант, автор песен и основатель группы Roxy Music. В 2012 году, в рамках проекта The Bryan Ferry Orchestra, записал новый альбом. В состав треклиста альбома вошли 13 песен из 11 альбомов его творчества, от первого альбома группы Roxy Music (1972) до последнего сольного альбома Olympia. Интересно, что запись альбома была стилизованна под джаз 1920-х годов.

Tреклист:
01. Do the Strand - 2:10
02. Love Is the Drug - 3:14
03. Dont Stop the Dance - 2:52
04. Just Like You - 3:25
05. Avalon - 2:23
06. The Bogus Man - 2:08
07. Slave to Love - 2:39
08. This Is Tomorrow - 2:28
09. The Only Face - 2:58
10. I Thought - 2:36
11. Reason or Rhyme - 4:16
12. Virginia Plain - 2:15
13. This Island Earth - 4:26

Лог создания рипа ▼TextExact Audio Copy V1.0 beta 3 from 29. August 2011

EAC extraction logfile from 10. November 2013, 21:05

The Bryan Ferry Orchestra / The Jazz Age

Used drive : ATAPI iHAS124 B Adapter: 2 ID: 0

Read mode : Secure
Utilize accurate stream : Yes
Defeat audio cache : Yes
Make use of C2 pointers : No

Read offset correction : 6
Overread into Lead-In and Lead-Out : No
Fill up missing offset samples with silence : Yes
Delete leading and trailing silent blocks : No
Null samples used in CRC calculations : Yes
Used interface : Native Win32 interface for Win NT & 2000

Used output format : User Defined Encoder
Selected bitrate : 1024 kBit/s
Quality : High
Add ID3 tag : No
Command line compressor : C:Program Files (x86)Exact Audio CopyFLACFLAC.EXE
Additional command line options : -8 -V -T "ARTIST=%artist%" -T "TITLE=%title%" -T "ALBUM=%albumtitle%" -T "DATE=%year%" -T "TRACKNUMBER=%tracknr%" -T "GENRE=%genre%" -T "PERFORMER=%albuminterpret%" -T "COMPOSER=%composer%" %haslyrics%--tag-from-file=LYRICS="%lyricsfile%"%haslyrics% -T "ALBUMARTIST=%albumartist%" -T "DISCNUMBER=%cdnumber%" -T "TOTALDISCS=%totalcds%" -T "TOTALTRACKS=%numtracks%" -T "COMMENT=%comment%" %source% -o %dest%


TOC of the extracted CD

Track | Start | Length | Start sector | End sector
---------------------------------------------------------
1 | 0:00.00 | 2:10.16 | 0 | 9765
2 | 2:10.16 | 3:14.09 | 9766 | 24324
3 | 5:24.25 | 2:51.50 | 24325 | 37199
4 | 8:16.00 | 3:24.63 | 37200 | 52562
5 | 11:40.63 |
eb852ac5c32e26bb4afb8839bff5bd838030dd4d(2012) The Bryan Ferry Orchestra / The Jazz Age (Jazz) [FLAC (image+.cue), lossless] (2012) The Bryan Ferry Orchestra / The Jazz Age (Jazz) [FLAC (image+.cue), lossless] " />

Аплоадер: Админ, дата: 10-11-2013, 21:38, торрент скачан: 359 раз

Понравилась раздача? Посмотрите эти:
  • (2013) Yes / Close To The Edge (1972, remixed, CD+Blu-ray) (Progressive Roc ...
  • (2013) Buddy Guy / Rhythm & Blues (2CD) (Blues) [FLAC (image+.cue), Lossles ...
  • (2013) The Hamburg Blues Band / Friends For A LIVEtime (Blues Rock, Rock) [ ...
  • (2013) Leslie West / Still Climbing (Rock, Hard Rock, Blues Rock) [FLAC (im ...
  • (2013) Paul McCartney / New (Deluxe Edition) (Rock) [FLAC (image,+.cue), lo ...
  • (2013) Elton John / The Diving Board (Rock, Pop Rock) [FLAC (image+.cue), L ...
  • (2013) Govt Mule / Shout! (2CD) (Blues Rock) [FLAC (image+.cue), Lossless]
  • (2012) Lazlo / Lazlo (Electro Swing, Nu Jazz, Electronic) [FLAC (tracks+.cu ...
  • (2012) Katie Melua / Secret Symphony (Jazz Pop, Vocal Jazz) [FLAC (tracks+. ...
  • (2012) Marconi Union / Different Colours (Post Rock, Downtempo, Ambient) [F ...
  • (2012) Tomandandy / Resident Evil: Retribution (Score, Soundtrack)[FLAC (tr ...
  • (2012) Sally Night / Love For Sale (Vocal Jazz) [FLAC (tracks+.cue), lossle ...
  • (1996) The Rasmus / Peep (Finnish Version) (Alternative Rock) [FLAC (tracks ...
  • (2011) Mistabishi / Trip (Drum & Bass, Breakbeat) [FLAC (tracks+.cue), loss ...
  • (2012) Buckethead / Electric Sea (Experimental/Acoustic/Ambient/Rock) [FLAC ...
  • (2012) Les Friction / Les Friction (Alt. Rock/Neo-Classical/Orchestral) [FL ...
  • (2011) SeeS / The enD (Progressive/Math Metal) [FLAC (tracks+.cue), lossles ...
  • (2012) Our Lady Peace / Curve (Alternative/Rock) [FLAC (tracks+.cue), lossl ...
  • (2012) Nine Lashes / World We View (Alt.Rock/Alt.Metal/Christian) [FLAC (tr ...
  • (2012) For Today / Immortal (Metalcore, Hardcore, Christian) [FLAC (tracks+ ...
  • Информация
    Посетители, находящиеся в группе Гости, не могут оставлять комментарии к данной публикации.