вход на сайт

Имя пользователя :
Пароль :

Восстановление пароля Регистрация
(2013) The Holmes Brothers / Brotherhood (Modern Electric Blues, Soul, Gospel) [FLAC (image+.cue), Lossless]
Рейтинг:
(голосов: 1)



[img]{THEME}/images/logopost.png[/img]



Исполнитель: The Holmes Brothers
Страна: USA
Альбом: Brotherhood
Тип альбома: Студийный
Год выпуска: 2013
Жанр: Modern Electric Blues, Soul, Gospel
Страна (Издатель, Каталожный номер): USA (Aligator Records, ALCD4957)
Аудиокодек: FLAC (*.flac)
Тип рипа: image+.cue
Битрейт: lossless
Продолжительность: 00:53:57
Наличие сканов в содержимом раздачи: Да (JPG, 600dpi, 15Mb)

Wikipedia|Official page

Tреклист:
01. Stayed at the Party - 3:29
02. I Gave Up All I Had - 3:14
03. Passing Through - 2:57
04. Youve Got to Lose - 3:07
05. Lickety Split - 3:44
06. Soldier of Love - 4:31
07. Gone For Good - 3:05
08. Loving You From Afar - 5:12
09. My Word Is My Bond - 3:05
10. Drivin in the Drivin Rain - 3:25
11. My Kind of Girl - 3:21
12. Darkest Hour - 4:24
13. Last Man Standing - 2:44
14. Amazing Grace - 7:39

Лог создания рипа (EAC log) ▼Text Exact Audio Copy V1.0 beta 3 from 29. August 2011

EAC extraction logfile from 5. November 2013, 21:46

The Holmes Brothers / Brotherhood

Used drive : ATAPI iHAS124 B Adapter: 2 ID: 0

Read mode : Secure
Utilize accurate stream : Yes
Defeat audio cache : Yes
Make use of C2 pointers : No

Read offset correction : 6
Overread into Lead-In and Lead-Out : No
Fill up missing offset samples with silence : Yes
Delete leading and trailing silent blocks : No
Null samples used in CRC calculations : Yes
Used interface : Native Win32 interface for Win NT & 2000

Used output format : User Defined Encoder
Selected bitrate : 1024 kBit/s
Quality : High
Add ID3 tag : No
Command line compressor : C:Program Files (x86)Exact Audio CopyFLACFLAC.EXE
Additional command line options : -8 -V -T "ARTIST=%artist%" -T "TITLE=%title%" -T "ALBUM=%albumtitle%" -T "DATE=%year%" -T "TRACKNUMBER=%tracknr%" -T "GENRE=%genre%" -T "PERFORMER=%albuminterpret%" -T "COMPOSER=%composer%" %haslyrics%--tag-from-file=LYRICS="%lyricsfile%"%haslyrics% -T "ALBUMARTIST=%albumartist%" -T "DISCNUMBER=%cdnumber%" -T "TOTALDISCS=%totalcds%" -T "TOTALTRACKS=%numtracks%" -T "COMMENT=%comment%" %source% -o %dest%

TOC of the extracted CD

Track | Start | Length | Start sector | End sector
---------------------------------------------------------
1 | 0:00.00 | 3:28.70 | 0 | 15669
2 | 3:28.70 | 3:13.41 | 15670 | 30185
3 | 6:42.36 | 2:57.02 | 30186 | 43462
4 | 9:39.38 | 3:07.11 | 43463 | 57498
5 | 12:46.49 | 3:44.33 | 57499 | 74331
6 | 16:31.07 | 4:30.69 | 74332 | 94650
7 | 21:02.01 | 3:04.51 | 94651
b7af789f7606feeff034a50520b52432064338f3(2013) The Holmes Brothers / Brotherhood (Modern Electric Blues, Soul, Gospel) [FLAC (image+.cue), Lossless] (2013) The Holmes Brothers / Brotherhood (Modern Electric Blues, Soul, Gospel) [FLAC (image+.cue), Lossless] " />

Аплоадер: Админ, дата: 1-12-2013, 09:28, торрент скачан: 359 раз

Понравилась раздача? Посмотрите эти:
  • (2013) Buddy Guy / Rhythm & Blues (2CD) (Blues) [FLAC (image+.cue), Lossles ...
  • (2013) Innes Sibun / Lost In The Wilderness (Blues Rock, Rock) [FLAC (image ...
  • (2013) The Hamburg Blues Band / Friends For A LIVEtime (Blues Rock, Rock) [ ...
  • (2013) Leslie West / Still Climbing (Rock, Hard Rock, Blues Rock) [FLAC (im ...
  • (2013) Paul McCartney / New (Deluxe Edition) (Rock) [FLAC (image,+.cue), lo ...
  • (2013) Elton John / The Diving Board (Rock, Pop Rock) [FLAC (image+.cue), L ...
  • (2013) Govt Mule / Shout! (2CD) (Blues Rock) [FLAC (image+.cue), Lossless]
  • (2013) Prodigy & The Alchemist / Albert Einstein (Underground Hip-Hop) [FLA ...
  • (2013) Hans Zimmer / Человек из стали / Man Of Steel [Deluxe Edition] (2 CD ...
  • (2011) Disturbed / The Lost Children (Alternative Metal) [FLAC (tracks+.cue ...
  • (2011) Linkin Park / LP Underground 11 (Alternative Rock) [FLAC (Image+cue) ...
  • (2012) Katie Melua / Secret Symphony (Jazz Pop, Vocal Jazz) [FLAC (tracks+. ...
  • (2012) Mark Lanegan Band / Blues Funeral (Alternative Rock/Blues Rock) [FLA ...
  • (2012) Marconi Union / Different Colours (Post Rock, Downtempo, Ambient) [F ...
  • (2008, Сборник) VA / Relax Piano - Yesterday - Trai Tim Mua Thu - Vol.7 (Ne ...
  • (2012) Tomandandy / Resident Evil: Retribution (Score, Soundtrack)[FLAC (tr ...
  • (2012) Lucy Durack / Lucy Durack (Pop, Soul, Contemporary Vocal) [FLAC (tra ...
  • (1996) The Rasmus / Peep (Finnish Version) (Alternative Rock) [FLAC (tracks ...
  • (2012) Usher / Looking 4 Myself (Deluxe Version) (R&B, Soul) [FLAC (tracks+ ...
  • (2012) Buckethead / Electric Sea (Experimental/Acoustic/Ambient/Rock) [FLAC ...
  • (2012) Les Friction / Les Friction (Alt. Rock/Neo-Classical/Orchestral) [FL ...
  • (2011) SeeS / The enD (Progressive/Math Metal) [FLAC (tracks+.cue), lossles ...
  • (2012) Our Lady Peace / Curve (Alternative/Rock) [FLAC (tracks+.cue), lossl ...
  • (2012) Nine Lashes / World We View (Alt.Rock/Alt.Metal/Christian) [FLAC (tr ...
  • (2012) For Today / Immortal (Metalcore, Hardcore, Christian) [FLAC (tracks+ ...
  • Информация
    Посетители, находящиеся в группе Гости, не могут оставлять комментарии к данной публикации.