вход на сайт

Имя пользователя :
Пароль :

Восстановление пароля Регистрация
(2013) Al Di Meola / All Your Life (Fusion) [FLAC (image+.cue), lossless]
Рейтинг:
(голосов: 1)



[img]{THEME}/images/logopost.png[/img]



Исполнитель: Al Di Meola
Страна: USA
Альбом: All Your Life
Тип альбома: Студийный
Год выпуска: 2013
Жанр: Fusion
Страна (Издатель, Каталожный номер): USA (Valiana)
Аудиокодек: FLAC (*.flac)
Тип рипа: image+.cue
Битрейт: lossless
Продолжительность:00:54:39

« All Your Life » - новый альбом Al Di Meola записанный на студии Abbey Road Studios, с гитарными кавер версиями The Beatles.

Tреклист:

01. in my life- 3:53
02. and i love her- 4:32
03. because- 4:08
04. michelle- 5:13
05. i will- 2:54
06. eleanor rigby- 2:52
07. penny lane- 5:43
08. blackbird- 4:40
09. i am the walrus- 4:06
10. a day in the life- 3:02
11. being for the benefit of mr kite- 3:11
12. with a little help from my friends- 4:17
13. if i fell- 3:00
14. shes leaving home- 3:22

Лог создания рипа ▼Textexact audio copy v1.0 beta 3 from 29. august 2011

отчёт eac об извлечении, выполненном 23. июня 2013, 13:52

al di meola / all your life

дисковод: hl-dt-stdvdram gh22ns70 adapter: 1 id: 0

режим чтения : достоверность
использование точного потока : да
отключение кэша аудио : да
использование указателей c2 : нет

коррекция смещения при чтении : 667
способность читать области lead-in и lead-out : нет
заполнение пропущенных сэмплов тишиной : да
удаление блоков с тишиной в начале и конце : нет
при вычислениях crc использовались нулевые сэмплы : да
интерфейс : встроенный win32-интерфейс для win nt/2000

выходной формат : пользовательский кодировщик
выбранный битрейт : 128 kbit/s
качество : высокий
добавление id3-тега : нет
утилита сжатия : c:program filesexact audio copyflacflac.exe
дополнительные параметры : -v -8 -t "date=%year%" -t "genre=%genre%" %source%


toc извлечённого cd

трек | старт | длительность | начальный сектор | конечный сектор
---------------------------------------------------------------------
1 | 0:00.00 | 3:52.68 | 0 | 17467
2 | 3:52.68 | 4:31.65 | 17468 | 37857
3 | 8:24.58 | 4:08.02 | 37858 | 56459
4 | 12:32.60 | 5:13.37 | 56460 | 79971
5 | 17:46.22 | 2:53.48 | 79972 | 92994
9bc7e6d2e7c3d33ddc6d1ef9c0e2f2b234591d25(2013) Al Di Meola / All Your Life (Fusion) [FLAC (image+.cue), lossless] (2013) Al Di Meola / All Your Life (Fusion) [FLAC (image+.cue), lossless] " />

Аплоадер: Админ, дата: 10-01-2014, 00:14, торрент скачан: 359 раз

Понравилась раздача? Посмотрите эти:
  • (1993) Coverdale & Page / Coverdale & Page (EMI Holland)(Hard Rock) [FLAC ( ...
  • (2000) a-ha / Minor Earth | Major Sky (Alternative Rock, Synth-pop ) [FLAC ...
  • (2013) Аркадий Северный и ансамбль «Четыре брата и лопата» / Концерт памяти ...
  • (2013) Смоки Мо / Младший (Rap, Hip-Hop) [FLAC (Tracks+.Cue), Lossless]
  • (2013) МакSим (Максим) / Другая реальность (Рор) [FLAC (image+.cue), lossle ...
  • (2013) Маклай и Ганза / Статус-Кво (Rap, Hip-Hop) [FLAC (Tracks+.Cue), Loss ...
  • (2013) Mike Tramp / Cobblestone Street (Classic Rock) [FLAC (image+.cue), l ...
  • (2013) Lone / Спутник (Rap, Hip-Hop) [FLAC (Tracks+.Cue), Lossless]
  • (2013) Стриж / Игристое (Rap, Hip-Hop) [FLAC (Tracks+.Cue), Lossless]
  • (2013) Баста / Баста 4 (Rap, Hip-Hop) [FLAC (Tracks+.Cue), Lossless]
  • (2013) Loc-Dog & Tony VA / Все знают всё (Rap, Hip-Hop) [FLAC (Tracks+.Cue ...
  • (1989) Fausto Papetti / Magic Sax [Vol. 2] (Instrumental) [FLAC (tracks+.cu ...
  • (2013) Pinnick Gales Pridgen / Pinnick Gales Pridgen (Hard Rock, Heavy Blue ...
  • (2013) Krokus / Dirty Dynamite (Hard Rock) [FLAC (image+.cue), lossless]
  • (2012) Рем Дигга / Черника (Rap) [FLAC (tracks+.cue), lossless]
  • (2012) Три Кита (Зануда, Gipsy King, Тато) / Три Кита (Rap) [FLAC (tracks+. ...
  • (2010) Schiller / Breathless (Electronic) [FLAC (image+.cue), lossless]
  • (2011) ДДТ / Иначе/P.S. (Русский Рок) [FLAC(image+.cue), lossless]
  • (1997) Jazz Cafe / Simple Pleasures (Jazz, instrumental) [FLAC (image+.сue ...
  • (2012) The Blues Overdrive / The Blues Overdrive (Blues-Rock) [FLAC (image+ ...
  • (1995) The Gary Tesca Orchestra / Amor amor - The Julio Iglesias Story (Pop ...
  • (2012) Триада / Мои глаза открыты (Rap) [FLAC (tracks+.cue), lossless]
  • (2012) KREC / Молча проще (Rap) [FLAC (tracks+.cue), lossless]
  • (2012) Ария / Live In Studio (Heavy Metal) [FLAC (image+.сue), lossless]
  • (2008) Nirvana / The Best Of (Grunge, Alternative) [FLAC (image+.сue), loss ...
  • Информация
    Посетители, находящиеся в группе Гости, не могут оставлять комментарии к данной публикации.