вход на сайт

Имя пользователя :
Пароль :

Восстановление пароля Регистрация
(1993) VA / GRP Christmas Collection, Vol. III (Fusion, Christmas) [FLAC (tracks+.cue), lossless]
Рейтинг:
(голосов: 1)



[img]{THEME}/images/logopost.png[/img]



Сборник
Исполнитель: Various Artists
Название сборника: GRP Christmas Collection, Vol. III
Год выпуска: 1993
Жанр: Fusion, Christmas
Аудиокодек: FLAC (*.flac)
Тип рипа: tracks+.cue
Битрейт: lossless
Продолжительность: 00:43:33

Дополнительная информация:▼О релизе:
- Страна (Издатель, Каталожный номер): США (GRP Records, GRD-9728)
- Log-файлы: Присутствуют
- Наличие сканов в содержимом раздачи: Да. (JPG, 300DPI, 13,2MB)

Об издании: GRPs third edition features key artists, e.g. Dave Grusin, David Benoit, Diane Schuur and Tom Scott, who have appeared on the previous volumes returning to render their interpretations of new Christmas material. GRP artists appearing for the first time on any holiday recording include Yellowjackets performing "Go Tell It on the Mountain," and B.B. Kings joyful "Merry Christmas, Baby," and Billy Taylor swinging the traditional "Deck the Halls..."


Amazon | AllMusic

Tреклист:
[04:19] 01. Tom Scott - Feliz Navidad
[03:57] 02. B.B. King - Merry Christmas Baby
[04:26] 03. Ramsey Lewis - Hark The Herald Angels Sing
[04:36] 04. David Benoit - O Little Town Of Bethlehem
[04:17] 05. Diane Schuur - Ill Be Home For Christmas
[04:33] 06. Yellowjackets - Go Tell It On The Mountain
[05:32] 07. Sergio Salvatore - Theres No Place Like Home For The Holidays
[05:25] 08. Dave Grusin - Lo, How A Rose Eer Blooming
[02:33] 09. Kim Pensyl - Joy To The World
[03:50] 10. Billy Taylor - Deck The Halls

Лог создания рипа (EAC log) ▼TextExact Audio Copy V0.99 prebeta 4 from 23. January 2008

EAC extraction logfile from 24. October 2009, 22:49

Various / GRP Christmas Collection, Vol. 3

Used drive : HL-DT-STCD-RW GCE-8481B Adapter: 1 ID: 0

Read mode : Secure
Utilize accurate stream : Yes
Defeat audio cache : Yes
Make use of C2 pointers : No

Read offset correction : 6
Overread into Lead-In and Lead-Out : No
Fill up missing offset samples with silence : Yes
Delete leading and trailing silent blocks : No
Null samples used in CRC calculations : Yes
Used interface : Native Win32 interface for Win NT & 2000
Gap handling : Appended to previous track

Used output format : User Defined Encoder
Selected bitrate : 1024 kBit/s
Quality : High
Add ID3 tag : No
Command line compressor : C:FLAC FolderFLACflac.exe
Additional command line options : -8 -V -T "ARTIST=%a" -T "TITLE=%t" -T "ALBUM=%g" -T "DATE=%y" -T "TRACKNUMBER=%n" -T "GENRE=%m" -T "COMMENT=EAC FLAC -8" %s


TOC of the extracted CD

Track | Start | Length | Start sector | End sector
---------------------------------------------------------
1 | 0:00.00 | 4:19.50 | 0 | 19474
2 | 4:19.50 | 3:57.62 | 19475 | 37311
3 | 8:17.37 | 4:26.13 | 37312 | 57274
&
267f7f4881379e287b7bc4bbc906b109ee7df58e(1993) VA / GRP Christmas Collection, Vol. III (Fusion, Christmas) [FLAC (tracks+.cue), lossless] (1993) VA / GRP Christmas Collection, Vol. III (Fusion, Christmas) [FLAC (tracks+.cue), lossless] " />

Аплоадер: Админ, дата: 18-12-2013, 14:15, торрент скачан: 359 раз

Понравилась раздача? Посмотрите эти:
  • (2012) Lazlo / Lazlo (Electro Swing, Nu Jazz, Electronic) [FLAC (tracks+.cu ...
  • (2010) Clean Tears / Innerve (Techno, Vocaloid) [FLAC (tracks+.cue), lossle ...
  • (2010) Zaz / Zaz (Nu jazz, Chanson, Soul) [FLAC (tracks+.cue), lossless]
  • (2011) Michael Bublé / Christmas (Limited Edition) (Vocal Jazz, Christmas) ...
  • (2010, 5CDs Box-set) Various Artists / 100 Hits - Christmas Legends (Big Ba ...
  • (2011) B.B. King / Icon (Blues) [FLAC (tracks+.cue), lossless]
  • (2012) Marconi Union / Different Colours (Post Rock, Downtempo, Ambient) [F ...
  • (2012, Сборник) VA / Saxophone Golden Best (Jazz, Smooth Jazz) [FLAC (track ...
  • (2008, Сборник) VA / Relax Piano - Yesterday - Trai Tim Mua Thu - Vol.7 (Ne ...
  • (2012) Tomandandy / Resident Evil: Retribution (Score, Soundtrack)[FLAC (tr ...
  • (2012) Rod Stewart / Merry Christmas, Baby (Deluxe Edition) (Jazz) [FLAC (i ...
  • (2011, Сборник) VA / Merry Christmas (4 CD) (Pop, Retro) [FLAC (image+.cue) ...
  • (1996) The Rasmus / Peep (Finnish Version) (Alternative Rock) [FLAC (tracks ...
  • (1999) Muffler / Muffler (Drum & Bass) [FLAC (tracks+.cue), lossless]
  • (2011) Mistabishi / Trip (Drum & Bass, Breakbeat) [FLAC (tracks+.cue), loss ...
  • (2011) Ляпис Трубецкой / Веселые картинки (Rock) [FLAC (tracks+.cue), lossl ...
  • (2011) Scorpions / Comeblack (Hard Rock) [FLAC (tracks+.cue)lossless]
  • (2011) Дельфин / Существо (Alternative|Experimental) [FLAC (tracks+.cue), l ...
  • (2011) Ленинград / Хна (Rock) [FLAC (tracks+.cue), lossless]
  • (2012) Buckethead / Electric Sea (Experimental/Acoustic/Ambient/Rock) [FLAC ...
  • (2012) Les Friction / Les Friction (Alt. Rock/Neo-Classical/Orchestral) [FL ...
  • (2011) SeeS / The enD (Progressive/Math Metal) [FLAC (tracks+.cue), lossles ...
  • (2012) Nine Lashes / World We View (Alt.Rock/Alt.Metal/Christian) [FLAC (tr ...
  • (2011) Phinehas / Thegodmachine (Metalcore) [FLAC (tracks+.cue), lossless]
  • (2012) For Today / Immortal (Metalcore, Hardcore, Christian) [FLAC (tracks+ ...
  • Информация
    Посетители, находящиеся в группе Гости, не могут оставлять комментарии к данной публикации.