вход на сайт

Имя пользователя :
Пароль :

Восстановление пароля Регистрация
(2012) Guillaume Perret & The Electric Epic / Guillaume Perret & The Electric Epic (Jazz-Rock, Avant-Garde Jazz) [FLAC (tracks+.cue), lossless]
Рейтинг:
(голосов: 1)



[img]{THEME}/images/logopost.png[/img]



Исполнитель: Guillaume Perret & The Electric Epic
Страна: Франция
Альбом: Guillaume Perret & The Electric Epic
Тип альбома: Студийный
Год выпуска: 2012
Жанр: Jazz-Rock, Avant-Garde Jazz
Страна (Издатель, Каталожный номер): США (Tzadik, TZ 7804)
Аудиокодек: FLAC (*.flac)
Тип рипа: tracks+.cue
Битрейт: lossless
Log-файл: Присутствует.
Наличие сканов в содержимом раздачи: Да. (JPG, 300DPI, 3,55MB)
Продолжительность: 00:56:52

Состав:
Guillaume Perret: Electric Saxophones, Effects
Sir Alice: Voice
Philippe Bussonnet: Electric Bass, Effects
Médéric Collignon: Voice, Cornet, Effects
Jim Grandcamp: Electric Guitar, Effects
Yoann Serra: Drums, Sampler

Tреклист:
[08:24] 01. Guillaume Perret & The Electric Epic - Kakoum
[07:58] 02. Guillaume Perret & The Electric Epic - Légo
[04:45] 03. Guillaume Perret & The Electric Epic - Ethiopic Vertigo
[08:45] 04. Guillaume Perret & The Electric Epic - Circé
[05:41] 05. Guillaume Perret & The Electric Epic - Chamo
[12:33] 06. Guillaume Perret & The Electric Epic - Thème pour le Rivage des Morts
[08:43] 07. Guillaume Perret & The Electric Epic - Massacra

Лог создания рипа (EAC log) ▼TextExact Audio Copy V1.0 beta 3 from 29. August 2011

EAC extraction logfile from 22. April 2012, 13:31

Guillaume Perret & The Electric Epic / Guillaume Perret & The Electric Epic

Used drive : PBDS DVD+-RW DS-8W1P Adapter: 0 ID: 0

Read mode : Secure
Utilize accurate stream : Yes
Defeat audio cache : Yes
Make use of C2 pointers : No

Read offset correction : 594
Overread into Lead-In and Lead-Out : No
Fill up missing offset samples with silence : Yes
Delete leading and trailing silent blocks : No
Null samples used in CRC calculations : Yes
Used interface : Native Win32 interface for Win NT & 2000
Gap handling : Appended to previous track

Used output format : Internal WAV Routines
Sample format : 44.100 Hz; 16 Bit; Stereo

TOC of the extracted CD

Track | Start | Length | Start sector | End sector
---------------------------------------------------------
1 | 0:00.00 | 8:24.06 | 0 | 37805
2 | 8:24.06 | 7:58.15 | 37806 | 73670
3 | 16:22.21 | 4:45.51 | 73671 | 95096
4 | 21:07.72 | 8:45.50 | 95097 | 134521
5 | 29:53.47 | 5:41.69 | 134522 | 160165
6 | 35:35.41 | 12:33.66 | 160166 | 216706
7 | 48:09.32 | 8:43.31 | 216707 | 255962

Track 1

Filename F:UploadGuillaume Perret & The Electric Epic (2012) Lossless1 Kakoum.wav

Pre-gap length 0:00:02.00

Peak level 97.0 %
Extraction speed 1.1 X
Track quality 100.0 %
Test CRC 48FB54B6
Copy CRC 48FB54B6
Track
f21157fcee81dcebb8bfc4f93ee3f45b2e443fc3(2012) Guillaume Perret & The Electric Epic / Guillaume Perret & The Electric Epic (Jazz-Rock, Avant-Garde Jazz) [FLAC (tracks+.cue), lossless] (2012) Guillaume Perret & The Electric Epic / Guillaume Perret & The Electric Epic (Jazz-Rock, Avant-Garde Jazz) [FLAC (tracks+.cue), lossless] " />

Аплоадер: Админ, дата: 22-08-2012, 00:30, торрент скачан: 359 раз

Понравилась раздача? Посмотрите эти:
  • (2013) The Holmes Brothers / Brotherhood (Modern Electric Blues, Soul, Gosp ...
  • (2012) Lazlo / Lazlo (Electro Swing, Nu Jazz, Electronic) [FLAC (tracks+.cu ...
  • (2013) VA / Dalla in Jazz (Jazz, Vocal Jazz) [FLAC (tracks+.cue), lossless] ...
  • (2012) Electric Touch / Never Look Back (Alternative Rock, Modern Rock) [MP ...
  • (2012) Overkill / The Electric Age (Thrash Metal) [MP3, 320/CBR]
  • (2012) Magic Malik / Alternate Steps (Avant-Garde Jazz) [Mp3 (tracks), 320/ ...
  • (2009) The Black Eyed Peas / The E.N.D. (The Energy Never Dies) (Target Del ...
  • (2010) Zaz / Zaz (Nu jazz, Chanson, Soul) [FLAC (tracks+.cue), lossless]
  • (2011) Adele / 21 (Jazz, Lounge, Easy Listening) [FLAC (tracks + .cue), los ...
  • (Дискография 2003-2005) Skalpel (Nu Jazz) [FLAC (tracks+.cue), lossless]
  • (Дискография 1997-2010) Electric Six (Indie Rock/Alternative Rock) [FLAC (t ...
  • (2010) Ravenna / Debrief (Alt. Rock / Christian Rock / Indie) [FLAC (tracks ...
  • (1998) Roomful of Blues / There Goes The Neighborhood (Jump / Modern Electr ...
  • (2002, 4xCD Box Set) B.B. King / The Vintage Years (Modern Electric Blues, ...
  • (2012, Сборник) VA / Saxophone Golden Best (Jazz, Smooth Jazz) [FLAC (track ...
  • (2012) Sally Night / Love For Sale (Vocal Jazz) [FLAC (tracks+.cue), lossle ...
  • (2006) The Rasmus / Shot (Single) (Alternative Rock) [FLAC (tracks+.cue), l ...
  • (2010) Sade / Soldier Of Love ( jazz, soul, blues) [FLAC (tracks) lossless] ...
  • (2010) Кукрыниксы / Всадники Света (Punk Rock) [FLAC (tracks+.cue), lossles ...
  • (2011) Electric Universe / Higher Modes (Psytrance, Full On) [FLAC (tracks+ ...
  • (2012) Buckethead / Electric Sea (Experimental/Acoustic/Ambient/Rock) [FLAC ...
  • (2012) The Cranberries / Roses (Alternative Rock / Pop-Rock) [FLAC (tracks+ ...
  • (2012) Buckethead / Electric Sea (Experimental, Acoustic, Ambient) [MP3, 32 ...
  • (2012) Peter White / Here We Go (Smooth Jazz) [FLAC (tracks+.cue), lossles ...
  • (2012) Оргия Праведников / Шитрок (Rock/Progressive Rock) [FLAC (tracks+cue ...
  • Информация
    Посетители, находящиеся в группе Гости, не могут оставлять комментарии к данной публикации.