вход на сайт

Имя пользователя :
Пароль :

Восстановление пароля Регистрация
(1995) Steve Morse Band / Structural Damage (Instrumental Rock/Blues Rock/Jazz Rock) [FLAC (image+.cue), lossless]
Рейтинг:
(голосов: 1)



[img]{THEME}/images/logopost.png[/img]





Альбом: Structural Damage
Тип альбома: Студийный
Год выпуска: 1995
Страна: USA
Жанр: Instrumental Rock/Blues Rock/Jazz Rock
Формат: FLAC (image+.cue)
Битрейт: lossless
Лог-файл: Присутствует
Продолжительность: 00:43:04


01. Sacred Ground (04:01)
02. Good To Go (04:54)
03. Dreamland (04:58)
04. Barbary Coast (03:27)
05. Smokey Mtn. Drive (03:43)
06. Slice Of Time (02:37)
07. Native Dance (04:40)
08. Just Out Of Reach (03:45)
09. Rally Cry (04:33)
10. Foreign Exchange (02:53)
11. Structural Damage (03:29)

Лог создания рипа ▼Exact Audio Copy V0.99 prebeta 5 from 4. May 2009
Отчёт EAC об извлечении, выполненном 3. августа 2009, 17:03
Steve Morse Band / Structural Damage
Дисковод: _NEC DVD_RW ND-3550A Adapter: 0 ID: 0
Режим чтения : Достоверность
Использование точного потока : Да
Отключение кэша аудио : Да
Использование указателей C2 : Нет
Коррекция смещения при чтении : 48
Способность читать области Lead-in и Lead-out : Нет
Заполнение пропущенных сэмплов тишиной : Да
Удаление блоков с тишиной в начале и конце : Нет
При вычислениях CRC использовались нулевые сэмплы : Да
Интерфейс : Встроенный Win32-интерфейс для Win NT/2000
Выходной формат : Внутренние WAV-операции
Формат сэмплов : 44.100 Гц; 16 бит; стерео
TOC извлечённого CD
Трек | Старт | Длительность | Начальный сектор | Конечный сектор
---------------------------------------------------------------------
1 | 0:00.00 | 4:01.61 | 0 | 18135
2 | 4:01.61 | 4:54.28 | 18136 | 40213
3 | 8:56.14 | 4:58.25 | 40214 | 62588
4 | 13:54.39 | 3:27.55 | 62589 | 78168
5 | 17:22.19 | 3:43.10 | 78169 | 94903
6 | 21:05.29 | 2:37.61 | 94904 | 106739
7 | 23:43.15 | 4:40.20 | 106740 | 127759
8 | 28:23.35 | 3:45.08 | 127760 | 144642
9 | 32:08.43 | 4:33.41 | 144643 | 165158
10 | 36:42.09 | 2:53.17 | 165159 | 178150
11 | 39:35.26 | 3:29.31 | 178151 | 193856
Характеристики диапазона извлечения и сообщения об ошибках
Выбранный диапазон
Имя файла E:BUM-CHA-CHAРаздачаSteve Morse - Structural Damage (1995)Steve Morse Band - Structural Damage.wav
Пиковый уровень 100.0 %
Качество диапазона 99.9 %
CRC копии 84EB746D
Копирование... OK
Ошибок не произошло
AccurateRip: сводка
Трек 1 нет в базе данных
Трек 2 нет в базе данных
Трек 3 нет в базе данных
Трек 4 нет в базе данных
Трек 5 нет в базе данных
Трек 6 нет в базе данных
Трек 7 нет в базе данных
Трек 8 нет в базе данных
Трек 9 нет в базе данных
Трек 10 нет в базе данных
Трек 11 нет в базе данных
Ни одного трека нет в базе AccurateRip
Конец отчёта





5b13030d1734b37e5131d345951ce4984a6f77d4(1995) Steve Morse Band / Structural Damage (Instrumental Rock/Blues Rock/Jazz Rock) [FLAC (image+.cue), lossless] (1995) Steve Morse Band / Structural Damage (Instrumental Rock/Blues Rock/Jazz Rock) [FLAC (image+.cue), lossless] " />

Аплоадер: Админ, дата: 7-04-2012, 17:34, торрент скачан: 359 раз

Понравилась раздача? Посмотрите эти:
  • (2000) Lenny Kravitz / Greatest Hits (Rock, Funk) [FLAC (image+.cue), lossl ...
  • (2002) a-ha / Lifelines (Alternative Rock, Synth-pop ) [FLAC (image + .cue ...
  • (2013) Pinnick Gales Pridgen / Pinnick Gales Pridgen (Hard Rock, Heavy Blue ...
  • (2006) Tokio / puls 200 (Alternative Rock / Pop Rock) [FLAC (image+.cue) lo ...
  • (2010) Смоки МО / Выход Из Темноты (Rap) [APE (image+ cue), lossless]
  • (2007) VA / Coffee Time Jazz (Smooth Jazz, Big Band, Latin Jazz) [FLAC (ima ...
  • (2004) Genesis / Platinum Collection (Art Rock) [FLAC (image+.cue), lossles ...
  • (2011) Blues Cousins / KGB Blues (Blues Rock) [FLAC (image+.cue), lossless] ...
  • (2011) АукцЫон / Юла (Rock) [APE (image+.cue), lossless]
  • (Дискография, 1986 - 1999) Crimson Glory (Progressive Heavy Metal) [FLAC (i ...
  • (2012) The Blues Overdrive / The Blues Overdrive (Blues-Rock) [FLAC (image+ ...
  • (2001, сборник) Технология — Лучшие песни (Поп) [FLAC, lossless]
  • (2007) ЛАСКОВЫЙ МАЙ - Лучшие Песни. Твоя Коллекция (2CD) (Pop) [FLAC (image ...
  • ( 2001) Воскресение / Звездная коллекция (Rock) [FLAC (image+.cue) lossless ...
  • (2009) Земфира / Z-Sides (Rock) [FLAC(image+.cue), lossless ]
  • (2006) Би-2 / Лучшие песни (Rock) [FLAC (image+.cue), lossless]
  • (2012) Paradise Lost / Tragic Idol (Limited Edition) (Gothic Rock, Metal) [ ...
  • (2000) Парк Горького (Gorky Park) / The Best (Glam Metal/Hard Rock) [FLAC ...
  • (2004) Ex-Сектор Газа / Огненный рай (Punk-Rock) [FLAC (image+.cue), lossle ...
  • (2012) Don Ray Band / Full Throttle (Blues, Blues-Rock) [APE (image+.cue), ...
  • Информация
    Посетители, находящиеся в группе Гости, не могут оставлять комментарии к данной публикации.