вход на сайт

Имя пользователя :
Пароль :

Восстановление пароля Регистрация
(2012) Peter White / Here We Go (Smooth Jazz) [FLAC (tracks+.cue), lossless]
Рейтинг:
(голосов: 1)



[img]{THEME}/images/logopost.png[/img]




Исполнитель:Peter White
Страна: United Kingdom
Альбом: Here We Go
Издатель (лейбл): Heads Up International (Номер по коталогу: HUI 3290502)
Тип альбома:Студийный
Год выпуска:March 13, 2012
Жанр:Smooth Jazz
Формат: FLAC (tracks+.cue)
Битрейт: lossless
Log-файл: Присутствует
Наличие сканов в содержимом раздачи: нет
Продолжительность: 00:52:36

Описание: 13 студийный альбом Питера Уайта. В записи принимали участия такие видные артисты жанра как David Sanborn, Andrew Neu и Kirk Whalum.


Wikipedia|Official page

Tреклист:

01. Night After Night (Peter White) - 05:22
02. Time Never Sleeps (Peter White) - 05:12
03. Here We Go (Peter White) - 03:58
04. If Ever (Peter White) - 04:31
05. Our Dance (Peter White) - 05:12
06. Desert Night (Peter White) - 02:59
07. Joyride (Peter White) - 05:03
08. Costa Rica (Peter White) - 05:19
09. My Lucky Day (Peter White) - 04:59
10. Requiem For A Princess (Peter White) - 05:00
11. Reunion (Peter White) - 04:57



Лог создания рипа ▼TextExact Audio Copy V1.0 beta 2 from 29. April 2011

EAC extraction logfile from 1. April 2012, 17:06

Peter White / Here We Go

Used drive : TSSTcorpDVD+-RW TS-H653B Adapter: 1 ID: 0

Read mode : Secure
Utilize accurate stream : Yes
Defeat audio cache : Yes
Make use of C2 pointers : No

Read offset correction : 6
Overread into Lead-In and Lead-Out : No
Fill up missing offset samples with silence : Yes
Delete leading and trailing silent blocks : No
Null samples used in CRC calculations : Yes
Used interface : Native Win32 interface for Win NT & 2000
Gap handling : Appended to previous track

Used output format : User Defined Encoder
Selected bitrate : 768 kBit/s
Quality : High
Add ID3 tag : No
Command line compressor : C:Program FilesExact Audio CopyFLACFLAC.EXE
Additional command line options : -8 -V -T "ARTIST=%artist%" -T "TITLE=%title%" -T "ALBUM=%albumtitle%" -T "DATE=%year%" -T "TRACKNUMBER=%tracknr%" -T "GENRE=%genre%" -T "PERFORMER=%albuminterpret%" -T "COMPOSER=%composer%" %haslyrics%--tag-from-file=LYRICS


TOC of the extracted CD

Track | Start | Length | Start sector | End sector
---------------------------------------------------------
1 | 0:00.00 | 5:22.02 | 0 | 24151
2 | 5:22.02 | 5:12.04 | 24152 | 47555
3 | 10:34.06 | 3:58.44 | 47556 | 65449
4 | 14:32.50 | 4:31.28 | 65450 | 85802
5 | 19:04.03 | 5:12.40 | 85803 | 109242
6 | 24:16.43 | 2:59.64 | 109243
8d44ab38ff4558e703893b67718d93f1ccf749b7(2012) Peter White / Here We Go (Smooth Jazz) [FLAC (tracks+.cue), lossless] (2012) Peter White / Here We Go (Smooth Jazz) [FLAC (tracks+.cue), lossless] " />

Аплоадер: Админ, дата: 7-04-2012, 11:24, торрент скачан: 359 раз

Понравилась раздача? Посмотрите эти:
  • (2012) Lazlo / Lazlo (Electro Swing, Nu Jazz, Electronic) [FLAC (tracks+.cu ...
  • (2010) Clean Tears / Innerve (Techno, Vocaloid) [FLAC (tracks+.cue), lossle ...
  • (2010) Zaz / Zaz (Nu jazz, Chanson, Soul) [FLAC (tracks+.cue), lossless]
  • (2012) Katie Melua / Secret Symphony (Jazz Pop, Vocal Jazz) [FLAC (tracks+. ...
  • (2012) Marconi Union / Different Colours (Post Rock, Downtempo, Ambient) [F ...
  • (2012, Сборник) VA / Saxophone Golden Best (Jazz, Smooth Jazz) [FLAC (track ...
  • (2012) Tomandandy / Resident Evil: Retribution (Score, Soundtrack)[FLAC (tr ...
  • (2012) Sally Night / Love For Sale (Vocal Jazz) [FLAC (tracks+.cue), lossle ...
  • (1996) The Rasmus / Peep (Finnish Version) (Alternative Rock) [FLAC (tracks ...
  • (2011) Revocation / Chaos of Forms (Death Metal/Thrash) [FLAC (tracks+.cue) ...
  • (2011) Дельфин / Существо (Alternative|Experimental) [FLAC (tracks+.cue), l ...
  • (2012) Buckethead / Electric Sea (Experimental/Acoustic/Ambient/Rock) [FLAC ...
  • (2012) Les Friction / Les Friction (Alt. Rock/Neo-Classical/Orchestral) [FL ...
  • (2011) SeeS / The enD (Progressive/Math Metal) [FLAC (tracks+.cue), lossles ...
  • (2012) Bleeding Through / The Great Fire (Symphonic Metalcore/Hardcore) [FL ...
  • (2012) Our Lady Peace / Curve (Alternative/Rock) [FLAC (tracks+.cue), lossl ...
  • (2012) Nine Lashes / World We View (Alt.Rock/Alt.Metal/Christian) [FLAC (tr ...
  • (2011) Phinehas / Thegodmachine (Metalcore) [FLAC (tracks+.cue), lossless]
  • (2012) For Today / Immortal (Metalcore, Hardcore, Christian) [FLAC (tracks+ ...
  • (2012) Laid Back / Cosmic Vibes (Electronic, Pop, Electro, Downtempo) [FLAC ...
  • Информация
    Посетители, находящиеся в группе Гости, не могут оставлять комментарии к данной публикации.