вход на сайт

Имя пользователя :
Пароль :

Восстановление пароля Регистрация
(1988) Fausto Papetti / Grand Collection (POP, Jazz) [FLAC (image+.cue), lossless]
Рейтинг:
(голосов: 1)



[img]{THEME}/images/logopost.png[/img]



Исполнитель: Fausto Papetti
Альбом: Grand Collection
Год выпуска: 1988
Жанр: POP, Jazz
Формат: FLAC (image+.cue)
Битрейт: lossless
Продолжительность: 00:55:00

Tреклист:
01. I Just Called To Say I Love You [03:12]
02. Bossa For My Lady [03:38]
03. Mask The Knife [03:18]
04. Love Me From "Goodfather" [02:33]
05. Adagio Di Albioni [03:03]
06. The Windmiles Of You Mind [03:09]
07. Love Story [02:58]
08. Strangers In The Night [02:36]
09. This Is Not America [03:39]
10. Reality [04:18]
11. Theme Frome Paradise [03:19]
12. Women In Love [03:14]
13. Emanuelle [03:22]
14. Your Eyes [03:23]
15. Ditencello Vuje [04:22]
16. Aranjues Mon Amour [03:52]
17. Feelings [03:33]
18. Hill Street Blues [03:24]
19. Live is Live [03:13]
20. Part - Time Lover [03:42]
21. Yesterday [03:31]

Лог создания рипа ▼Exact Audio Copy V0.99 prebeta 5 from 4. May 2009

Отчёт EAC об извлечении, выполненном 12. ноября 2009, 11:32

Fausto Papetti / Grand Collection

Дисковод: ASUSDRW-2014S1 Adapter: 1ID: 1

Режим чтения : Достоверность
Использование точного потока : Да
Отключение кэша аудио: Да
Использование указателей C2: Нет

Коррекция смещения при чтении : 6
Способность читать области Lead-in и Lead-out : Нет
Заполнение пропущенных сэмплов тишиной: Да
Удаление блоков с тишиной в начале и конце: Нет
При вычислениях CRC использовались нулевые сэмплы : Да
Интерфейс : Установленный внешний ASPI-интерфейс

Выходной формат : Внутренние WAV-операции
Формат сэмплов: 44.100 Гц; 16 бит; стерео


TOC извлечённого CD

Трек | Старт| Длительность | Начальный сектор | Конечный сектор
---------------------------------------------------------------------
1|0:00.25 |3:12.00 |25|14424
2|3:12.25 |3:38.02 | 14425|30776
3|6:50.27 |3:18.25 | 30777|45651
4| 10:08.52 |2:33.10 | 45652|57136
5| 12:41.62 |3:03.40 | 57137|70901
6| 15:45.27 |3:09.50 |&nb
1198de6dc6758780f489e9352e6d10ec8e9d1349(1988) Fausto Papetti / Grand Collection (POP, Jazz) [FLAC (image+.cue), lossless] (1988) Fausto Papetti / Grand Collection (POP, Jazz) [FLAC (image+.cue), lossless] " />

Аплоадер: Админ, дата: 1-04-2012, 16:45, торрент скачан: 359 раз

Понравилась раздача? Посмотрите эти:
  • (2000) Lenny Kravitz / Greatest Hits (Rock, Funk) [FLAC (image+.cue), lossl ...
  • (1989) Fausto Papetti / Magic Sax [Vol. 2] (Instrumental) [FLAC (tracks+.cu ...
  • (2012) Григорий Лепс / Полный вперёд (Шансон) [FLAC (image+.cue), Lossless ...
  • (1967) Fausto Papetti / 8A Raccolta (Instrumental) [MP3, 256 kbps/CBR]
  • (2011, сборник) Fausto Papetti / Love & SAX (Instrumental) [MP3, 320 kbps/C ...
  • (2004) ELLA FITZGERALD - The Best Of Ella Fitzgerald - Summertime(Vocal Jaz ...
  • (1998) The Ventures & The Shadows / Grand Collection(Instrumental, Guit ...
  • (2004) VA / Инструментальная музыка - Лучшие мировые хиты (Instrumental) [A ...
  • (1999) Ennio Morricone / Romantic Collection (Classical) [FLAC (image+.cue) ...
  • (1994) Joy / Grand Collection (EuroDisco) [FLAC (image+.cue) lossless]
  • (1999) Paul Mauriat / Diamond Collections (Instrumental,Easy Listening) [FL ...
  • (1988) James Last / Romantic Love Songs (Instrumental) [FLAC (image+.cue) l ...
  • (2003) Joe Dassin / Grand Collection (PopMusic, Chanson) [FLAC (track+ cue) ...
  • (2002) Ирина Аллегрова / Grand Collection (Pop) [APE (image+.cue) lossless] ...
  • (2010) Ласковый Май (Солист Юра Шатунов) / Оригинальные записи 1988-1989 (2 ...
  • (2006) Батырхан Шукенов/ Отан Ана (Pop) [FLAC (image+.cue) lossless]
  • (2011) Within Temptation / The Unforgiving (Symphonic Gothic Metal) [FLAC ( ...
  • (2004) Genesis / Platinum Collection (Art Rock) [FLAC (image+.cue), lossles ...
  • (2011) Blues Cousins / KGB Blues (Blues Rock) [FLAC (image+.cue), lossless] ...
  • (1997) Jazz Cafe / Simple Pleasures (Jazz, instrumental) [FLAC (image+.сue ...
  • (2003) Joe Dassin / Grand Collection (Pop/Chanson) [FLAC (tracks+.cue), los ...
  • (2007) Fausto Papetti / Papetti Gold (Instrumental, Easy Listening) [FLAC ( ...
  • (2010) Lara Fabian / The Best of (2CD Limited Edition) (Pop) [Flac(image+.c ...
  • (1995) Yaki-Da / Pride (Pop, Eurodance) [FLAC (image+.сue), lossless]
  • (2008) Студия 80 / Придуманный Мир (Pop) [FLAC (image+.cue), lossless]
  • Информация
    Посетители, находящиеся в группе Гости, не могут оставлять комментарии к данной публикации.