вход на сайт

Имя пользователя :
Пароль :

Восстановление пароля Регистрация
(2007, сборник) Azzurra Orchestra / Saxophone Hits (3CD Box) (Jazz-Pop, Smoth) [FLAC (image+.сue), lossless]
Рейтинг:
(голосов: 1)



[img]{THEME}/images/logopost.png[/img]




Сборник
Исполнитель:Azzurra Orchestra
Название сборника:Saxophone Hits (3CD Box)
Издатель (лейбл): ZYX Music (Номер по каталогу: #BOX 781-3)
Жанр:Jazz-Pop, Smoth
Год выпуска:2007
Формат: FLAC (image+.сue)
Битрейт: lossless
Log-файл:Присутствует
Страна-производитель диска: Germany
Наличие сканов в содержимом раздачи: да
Продолжительность: 00:56:51 | 00:50:15 | 00:53:28

Tреклист:

CD1:

01.Wind Of Change | 05:01
02.Julia Says | 03:59
03.Angie | 04:44
04.Nikita | 05:16
05.Fields Of Gold | 03:35
06.Neverending Story | 03:46
07.Love Is All Around | 04:01
08.Space Oddity | 04:41
09.Body Guard | 03:45
10.Fragile | 03:48
11.Time After Time | 04:20
12.Without You | 03:22
13.Father And Son | 03:27
14.Imagine | 02:59

CD3

01.Garota De Ipanema | 05:48
02.Mas Que Nada | 04:38
03.Samba De Uma Nota So | 03:15
04.Na Estrada | 04:00
05.Berimbau | 04:00
06.Sina | 04:02
07.A Felicidade | 04:34
08.Flor De Ilis | 04:03
09.So Danco Samba | 02:09
10.Agua De Beber | 02:55
11.Quem Te Viu Quem Te Ve | 04:35
12.Sausalito | 02:05
13.Maracangalha | 03:27
14.Desafinado | 03:50


CD2:

01.Vamos A La Playa | 03:32
02.Sunshine Reggae | 04:08
03.Macarena | 03:08
04.No Woman No Cry | 04:18
05.The Hustle | 03:49
06.Rivers Of Babylon | 03:37
07.Flashdance | 03:39
08.Cherry Cherry Lady | 03:38
09.Lambada | 03:12
10.Like A Virgin | 03:02
11.Bette Davis Eyes | 03:28
12.Pata Pata | 03:20
13.Waterloo | 02:49
14.Tears In Haeven | 04:27


Лог создания рипа CD1: ▼TextExact Audio Copy V0.99 prebeta 4 from 23. January 2008

Отчёт EAC об извлечении, выполненном 13. июня 2010, 19:55

Various / Saxophone Hits (CD1)

Дисковод: ASUS DVD-E818AT Adapter: 3 ID: 1

Режим чтения : Достоверность
Использование точного потока : Да
Отключение кэша аудио : Да
Использование указателей C2 : Нет

Коррекция смещения при чтении : 6
Способность читать области Lead-in и Lead-out : Нет
Заполнение пропущенных сэмплов тишиной : Да
Удаление блоков с тишиной в начале и конце : Нет
При вычислениях CRC использовались нулевые сэмплы : Да
Интерфейс : Встроенный Win32-интерфейс для Win NT/2000

Выходной формат : Внутренние WAV-операции
Формат сэмплов : 44.100 Гц; 16 бит; стерео


TOC извлечённого CD

Трек | Старт | Длительность | Начальный сектор | Конечный сектор
---------------------------------------------------------------------
1 | 0:00.00 | 5:03.72 | 0 | 22796
2 | 5:03.72 | 4:01.13 | 22797 | 40884
3 | 9:05.10 | 4:46.04 | 40885 | 62338
4 | 13:51.14 | 5:18.33 | 62339 | 86221
5 | 19:09.47 | 3:37.65 | 86222 | 102561 &n
800bf4a14237a6500e78d37e633590968b8eed54(2007, сборник) Azzurra Orchestra / Saxophone Hits (3CD Box) (Jazz-Pop, Smoth) [FLAC (image+.сue), lossless] (2007, сборник) Azzurra Orchestra / Saxophone Hits (3CD Box) (Jazz-Pop, Smoth) [FLAC (image+.сue), lossless] " />

Аплоадер: Админ, дата: 11-03-2012, 14:51, торрент скачан: 359 раз

Понравилась раздача? Посмотрите эти:
  • (2000) Lenny Kravitz / Greatest Hits (Rock, Funk) [FLAC (image+.cue), lossl ...
  • (2002) a-ha / Lifelines (Alternative Rock, Synth-pop ) [FLAC (image + .cue ...
  • (2011, Сборник) VA / Cool Jazz - The Coolest Jazz Selection (2CD) (Cool Jaz ...
  • (2012) Григорий Лепс / Полный вперёд (Шансон) [FLAC (image+.cue), Lossless ...
  • (2006, сборник) VA - The Greatest Jazz Hits (Jazz) [lossless, FLAC (tracks+ ...
  • (2004) ELLA FITZGERALD - The Best Of Ella Fitzgerald - Summertime(Vocal Jaz ...
  • (2008) VANESSA MAE / Star Mark Greatest Hits [2CD] (Neoclassical / Violin / ...
  • (1994) Joy / Grand Collection (EuroDisco) [FLAC (image+.cue) lossless]
  • (2006) Батырхан Шукенов/ Отан Ана (Pop) [FLAC (image+.cue) lossless]
  • (2011) Within Temptation / The Unforgiving (Symphonic Gothic Metal) [FLAC ( ...
  • (2007) VA / Coffee Time Jazz (Smooth Jazz, Big Band, Latin Jazz) [FLAC (ima ...
  • (2011) Blues Cousins / KGB Blues (Blues Rock) [FLAC (image+.cue), lossless] ...
  • (2005) плюм-Бум / Чистая правда (Funk, Reggae, Pop-Punk) [APE(image+.cue), ...
  • (1997) Jazz Cafe / Simple Pleasures (Jazz, instrumental) [FLAC (image+.сue ...
  • (2008, 3xCD Box Set) Nina Simone / To Be Free. The Nina Simone Story (Jazz, ...
  • (1995) The Gary Tesca Orchestra / Amor amor - The Julio Iglesias Story (Pop ...
  • (2007) Pink Floyd / Greatest Hits [Star Mark] (2 CD) (Progressive Rock, Ps ...
  • ( 2001) Воскресение / Звездная коллекция (Rock) [FLAC (image+.cue) lossless ...
  • (2009, Cборник) Madonna / Greatest Hits [CD1 + CD2] (Pop) [APE (image+.cue) ...
  • (Дискография, 2005-2008) Ёлка (R&B, Reggae, Pop) [APE (image+.cue); FLAC (i ...
  • (1988) Fausto Papetti / Grand Collection (POP, Jazz) [FLAC (image+.cue), lo ...
  • (1995) Yaki-Da / Pride (Pop, Eurodance) [FLAC (image+.сue), lossless]
  • (2000) Парк Горького (Gorky Park) / The Best (Glam Metal/Hard Rock) [FLAC ...
  • (2004) Ex-Сектор Газа / Огненный рай (Punk-Rock) [FLAC (image+.cue), lossle ...
  • (2008) Студия 80 / Придуманный Мир (Pop) [FLAC (image+.cue), lossless]
  • Информация
    Посетители, находящиеся в группе Гости, не могут оставлять комментарии к данной публикации.