вход на сайт

Имя пользователя :
Пароль :

Восстановление пароля Регистрация
(2008, сборник) VA / The DALI CD Vol.2 - In Admiration Of Music (Vocal Jazz/Blues) [APE (image+.cue), lossless]
Рейтинг:
(голосов: 1)



[img]{THEME}/images/logopost.png[/img]



Сборник
Исполнитель: VA
Название сборника: The DALI CD Vol.2 - In Admiration Of Music
Год выпуска: 2008
Жанр: Vocal Jazz/Blues
Формат: APE (image+.сue)
Битрейт: lossless
Log-файл: Прилагается
Продолжительность: 75:38

Tреклист:
1. Tears Of Joy - Antonio Forcione 5:21
2. In Your Wild Garden - Josefine Cronholm 6:13
3. Hedonism (Just Because You Feel Good) - Skunk Anansie 3:30
4. Set Them Free - Caecillie Norby 4:31
5. Take Five - Dave Brubeck Quartet 5:28
6. Train Song - Holly Cole 3:29
7. The Gates of Istanbul - Loreena McKennitt 7:02
8. Breaking Silence - Janis Ian 3:13
9. Fever - Elvis Presley 3:36
10. Spanish Harlem - The Willy DeVille Acoustic Trio 4:05
11. Angel - Sabia 4:34
12. Samb-Adagio - Safri Duo 6:01
13. I Will Remember - Toto 6:09
14. Heart - Bo Stief Dream Machine 3:42
15. You and I (Trentemoller remix) - Filur feat. Pernille Rosendahl 9:02

Лог создания рипа ▼TextExact Audio Copy V0.99 prebeta 4 from 23. January 2008
Отчёт EAC об извлечении, выполненном 9. ноября 2009, 23:55
Various Artists / The DALI CD Vol2
Дисковод: TEAC CD-W524E Adapter: 0 ID: 0
Режим чтения : Достоверность
Использование точного потока : Да
Отключение кэша аудио : Нет
Использование указателей C2 : Да
Коррекция смещения при чтении : 686
Способность читать области Lead-in и Lead-out : Да
Заполнение пропущенных сэмплов тишиной : Да
Удаление блоков с тишиной в начале и конце : Нет
При вычислениях CRC использовались нулевые сэмплы : Нет
Интерфейс : Установленный внешний ASPI-интерфейс
Выходной формат : Внутренние WAV-операции
Формат сэмплов : 44.100 Гц; 16 бит; стерео
TOC извлечённого CD
Трек | Старт | Длительность | Начальный сектор | Конечный сектор
---------------------------------------------------------------------
1 | 0:00.00 | 5:20.16 | 0 | 24015
2 | 5:20.16 | 6:11.63 | 24016 | 51903
3 | 11:32.04 | 3:27.64 | 51904 | 67492
4 | 14:59.68 | 4:29.57 | 67493 | 87724
5 | 19:29.50 | 5:26.38 | 87725 | 112212
6 | 24:56.13 | 3:28.42 | 112213 | 127854
7 | 28:24.55 | 7:01.11 | 127855 | 159440
8 | 35:25.66 | 3:11.50 | 159441 | 173815
9 | 38:37.41 | 3:34.64 | 173816 | 189929
10 | 42:12.30 | 4:04.05 | 189930 | 208234
11 | 46:16.35 | 4:32.17 | 208235 | 228651
12 | 50:48.52 | 5:59.59 | 228652 | 255635
13 | 56:48.36 | 6:08.21 | 255636 | 283256
14 | 62:56.57 | 3:40.42 | 283257 | 299798
15 | 66:37.24 | 9:01.40 | 299799 | 340413
Характеристики диапазона извлечения и сообщения об ошибках
Выбранный диапазон
Имя файла E:МузыкаThe DALI CD Vol2The DALI CD Vol2.wav
Пиковый уровень 100.0 %
CRC копии E2E461C9
Копирование... OK
Ошибок не произошло
Конец отчёта




a61df1d40d7a04747a760d1b894626a08db51adf(2008, сборник) VA / The DALI CD Vol.2 - In Admiration Of Music (Vocal Jazz/Blues) [APE (image+.cue), lossless] (2008, сборник) VA / The DALI CD Vol.2 - In Admiration Of Music (Vocal Jazz/Blues) [APE (image+.cue), lossless] " />

Аплоадер: Админ, дата: 7-12-2011, 21:47, торрент скачан: 359 раз

Понравилась раздача? Посмотрите эти:
  • (2011, Сборник) VA / Cool Jazz - The Coolest Jazz Selection (2CD) (Cool Jaz ...
  • (2012) Григорий Лепс / Полный вперёд (Шансон) [FLAC (image+.cue), Lossless ...
  • (2004) ELLA FITZGERALD - The Best Of Ella Fitzgerald - Summertime(Vocal Jaz ...
  • (2000) Tic Tac Toe / Ist der Ruf erst ruiniert... (Rap,Hip-hop) [Lossless, ...
  • (2008) НоГГано / Первый (Rap) [APE(image+cue), lossless]
  • (2010) Баста / Баста 3 (Rap) [APE (image+.cue), lossless]
  • (2010) ST1M / Октябрь (Rap) [APE(image+.cue), lossless]
  • (1984) Boney M / Ten Thousand Lightyears (Disco) [APE (image+.cue) lossles ...
  • (2011) Within Temptation / The Unforgiving (Symphonic Gothic Metal) [FLAC ( ...
  • (2007) VA / Coffee Time Jazz (Smooth Jazz, Big Band, Latin Jazz) [FLAC (ima ...
  • (2011) VA / Bar Jazz (Swing, Vocal Jazz, Trad Jazz) [FLAC (image+.cue), los ...
  • (2011) Blues Cousins / KGB Blues (Blues Rock) [FLAC (image+.cue), lossless] ...
  • (2011) АукцЫон / Юла (Rock) [APE (image+.cue), lossless]
  • (1997) Jazz Cafe / Simple Pleasures (Jazz, instrumental) [FLAC (image+.сue ...
  • (Дискография, 1983-1997) Stevie Ray Vaughan (Blues) [APE (image+.cue), loss ...
  • (2008, 3xCD Box Set) Nina Simone / To Be Free. The Nina Simone Story (Jazz, ...
  • (2012) The Blues Overdrive / The Blues Overdrive (Blues-Rock) [FLAC (image+ ...
  • (2009) Rihanna / Rated R (R`n`B) [APE (image+.cue)]
  • (2009) Guf / Дома (Rap) [APE (image+.cue)]
  • (2009, Cборник) Madonna / Greatest Hits [CD1 + CD2] (Pop) [APE (image+.cue) ...
  • (2006, сборник) VA / The DALI CD - In Admiration Of Music (Lounge) [APE (i ...
  • (2007, сборник) Azzurra Orchestra / Saxophone Hits (3CD Box) (Jazz-Pop, Smo ...
  • (1988) Fausto Papetti / Grand Collection (POP, Jazz) [FLAC (image+.cue), lo ...
  • (1995) Steve Morse Band / Structural Damage (Instrumental Rock/Blues Rock/J ...
  • (2008) Студия 80 / Придуманный Мир (Pop) [FLAC (image+.cue), lossless]
  • Информация
    Посетители, находящиеся в группе Гости, не могут оставлять комментарии к данной публикации.