вход на сайт

Имя пользователя :
Пароль :

Восстановление пароля Регистрация
(2011) Alex Clare / The Lateness of the Hour (Soul, Pop, Dubstep) [FLAC (tracks+.cue), lossless]
Рейтинг:
(голосов: 1)



[img]{THEME}/images/logopost.png[/img]



Исполнитель: Alex Clare
Страна: Великобритания
Альбом: The Lateness of the Hour
Тип альбома: Студийный
Год выпуска: 2011
Жанр: Soul, Pop, Dubstep
Страна (Издатель, Каталожный номер): Island Records
Тип рипа: tracks+.cue
Битрейт: lossless
Продолжительность: 00:46:22

Об исполнителе (об издании):
▼ Alex Clare (ранее известен как Alexander G. Muertos) - британский музыкант из Лондона, Англия. Его дебютный альбом, The Lateness of the Hour, был опубликован в Великобритании 11 июля 2011 года на Island Records, и был спродюсирован Switchем и Diplo.
Tреклист:

01. Up All Night (2:43)
02. Treading Water (3:38)
03. Relax My Beloved (3:31)
04. Too Close (4:16)
05. When Doves Cry (4:08)
06. Hummingbird (3:50)
07. Hands Are Clever (3:16)
08. Tightrope (3:37)
09. Whispering (4:30)
10. Love You (4:39)
11. Sanctuary (4:00)
12. I Wont Let You Down (4:09)
Лог создания рипа ▼TextExact Audio Copy V1.0 beta 3 from 29. August 2011

EAC extraction logfile from 27. December 2011, 16:25

Alex Clare / The Lateness Of The Hour

Used drive : _NEC DVD_RW ND-4570A Adapter: 0 ID: 0

Read mode : Secure
Utilize accurate stream : Yes
Defeat audio cache : Yes
Make use of C2 pointers : No

Read offset correction : 48
Overread into Lead-In and Lead-Out : No
Fill up missing offset samples with silence : Yes
Delete leading and trailing silent blocks : No
Null samples used in CRC calculations : Yes
Used interface : Installed external ASPI interface
Gap handling : Appended to previous track

Used output format : User Defined Encoder
Selected bitrate : 1024 kBit/s
Quality : High
Add ID3 tag : No
Command line compressor : C:Program FilesExact Audio CopyFlacflac.exe
Additional command line options : -V -8 -T "Genre=%genre%" -T "Artist=%artist%" -T "Title=%title%" -T "Album=%albumtitle%" -T "Date=%year%" -T "Tracknumber=%tracknr%" -T "Comment=%comment%" %source%

TOC of the extracted CD

Track | Start | Length | Start sector | End sector
---------------------------------------------------------
1 | 0:00.00 | 2:43.09 | 0 | 12233
2 | 2:43.09 | 3:38.44 | 12234 | 28627
3 | 6:21.53 | 3:31.74 | 28628 | 44526
4 | 9:53.52 | 4:16.46 | 44527 | 63772
5 | 14:10.23 | 4:07.31 | 63773 | 82328
6 | 18:17.54 | 3:50.06 | 82329 | 99584
7 | 22:07.60 | 3:16.01 | 99585 | 114285
8 | 25:23.61 | 3:37.42 | 114286 | 130602
&n
e39bb89e09aeb04ae9c97ecb52f27ffebff8fb35(2011) Alex Clare / The Lateness of the Hour (Soul, Pop, Dubstep) [FLAC (tracks+.cue), lossless] (2011) Alex Clare / The Lateness of the Hour (Soul, Pop, Dubstep) [FLAC (tracks+.cue), lossless] " />

Аплоадер: Админ, дата: 23-09-2012, 23:22, торрент скачан: 359 раз

Понравилась раздача? Посмотрите эти:
  • (2011) Alex Clare / The Lateness Of The Hour (Deluxe Version) (Dubstep, Sou ...
  • (2010) Zaz / Zaz (Nu jazz, Chanson, Soul) [FLAC (tracks+.cue), lossless]
  • (2011) B.B. King / Icon (Blues) [FLAC (tracks+.cue), lossless]
  • (2012, Сборник) VA / Saxophone Golden Best (Jazz, Smooth Jazz) [FLAC (track ...
  • (2008, Сборник) VA / Relax Piano - Yesterday - Trai Tim Mua Thu - Vol.7 (Ne ...
  • (2012) Tomandandy / Resident Evil: Retribution (Score, Soundtrack)[FLAC (tr ...
  • (2012) Sally Night / Love For Sale (Vocal Jazz) [FLAC (tracks+.cue), lossle ...
  • (1996) The Rasmus / Peep (Finnish Version) (Alternative Rock) [FLAC (tracks ...
  • (2011) Dope D.O.D. / Branded (Hip-Hop, Dubstep) [FLAC (tracks+.cue), lossle ...
  • (2012) Usher / Looking 4 Myself (Deluxe Version) (R&B, Soul) [FLAC (tracks+ ...
  • (2011) Mistabishi / Trip (Drum & Bass, Breakbeat) [FLAC (tracks+.cue), loss ...
  • (2012) Netsky / 2 (Drum & Bass, Dubstep) [FLAC (tracks+.cue), lossless]
  • (2011) Scorpions / Comeblack (Hard Rock) [FLAC (tracks+.cue)lossless]
  • (2011) Дельфин / Существо (Alternative|Experimental) [FLAC (tracks+.cue), l ...
  • (2011) Ленинград / Хна (Rock) [FLAC (tracks+.cue), lossless]
  • (2012) Les Friction / Les Friction (Alt. Rock/Neo-Classical/Orchestral) [FL ...
  • (2011) SeeS / The enD (Progressive/Math Metal) [FLAC (tracks+.cue), lossles ...
  • (2012) KoRn feat. Skrillex / Chaos Lives In Everything (UK Promo) (Nu-metal ...
  • (2011) Phinehas / Thegodmachine (Metalcore) [FLAC (tracks+.cue), lossless]
  • (2012) For Today / Immortal (Metalcore, Hardcore, Christian) [FLAC (tracks+ ...
  • Информация
    Посетители, находящиеся в группе Гости, не могут оставлять комментарии к данной публикации.