вход на сайт

Имя пользователя :
Пароль :

Восстановление пароля Регистрация
(2000) Bomfunk MCs / In Stereo (Special 2CD Edition) (Electro, Hip-Hop, Funk) [FLAC (tracks+.cue), lossless]
Рейтинг:
(голосов: 1)



[img]{THEME}/images/logopost.png[/img]



Исполнитель: Bomfunk MCs
Альбом: In Stereo (Special 2CD Edition)
Тип альбома: Студийный
Год выпуска: 2000
Жанр: Electronic, Hip-Hop, Funk
Формат: FLAC (*.flac)
Тип рипа: tracks+.сue
Битрейт: lossless
Log-файлы: присутствуют
Продолжительность:01:56:52

Треклист:

CD1:
01. Bomfunk MCs - Uprocking Beats (03:41)
02. Bomfunk MCs - Other Emcees (03:48)
03. Bomfunk MCs - B-Boys & Flygirls (03:12)
04. Bomfunk MCs - Freestyler (05:06)
05. Bomfunk MCs - Rocking, Just To Make Ya Move (03:45)
06. Bomfunk MCs - Skys The Limit (Radio Edit feat. K rtsy) (03:56)
07. Bomfunk MCs - Stir Up The Bass (03:35)
08. Bomfunk MCs - Fashion Styley (Feat. Mr. B from Bu Bu Man) (04:39)
09. Bomfunk MCs - 1,2,3,4 (Feat. J.A.K. from The Cool Sheiks) (04:05)
10. Bomfunk MCs - Rock, Rocking Tha Spot (03:14)
11. Bomfunk MCs - In Stereo (04:46)
12. Bomfunk MCs - Spoken Word (04:41)

EAC Log ▼Text
Exact Audio Copy V0.99 prebeta 4 from 23. January 2008

EAC extraction logfile from 29. April 2008, 3:30

Bomfunk MCs / In Stereo (Special 2 Disc Edition)

Used drive : _NEC DVD+-RW ND-6650A Adapter: 1 ID: 0

Read mode : Secure
Utilize accurate stream : Yes
Defeat audio cache : Yes
Make use of C2 pointers : No

Read offset correction : 48
Overread into Lead-In and Lead-Out : Yes
Fill up missing offset samples with silence : Yes
Delete leading and trailing silent blocks : No
Null samples used in CRC calculations : Yes
Used interface : Native Win32 interface for Win NT & 2000
Gap handling : Appended to previous track

Used output format : User Defined Encoder
Selected bitrate : 768 kBit/s
Quality : High
Add ID3 tag : No
Command line compressor : D:Program FilesExact Audio CopyFLACFLAC.EXE
Additional command line options : -V -8 -T "artist=%a" -T "title=%t" -T "album=%g" -T "date=%y" -T "tracknumber=%n" -T "genre=%m" %s


TOC of the extracted CD

Track | Start | Length | Start sector | End sector
---------------------------------------------------------
1 | 0:00.00 | 3:43.22 | 0 | 16746
2 | 3:43.22 | 3:50.07 | 16747 | 34003
3 | 7:33.29 | 3:14.59 | 34004 | 48612
4 | 10:48.13 | 5:08.02 | 48613 | 71714
5 | 15:56.15 | 3:47.37 | 71715 | 88776
6 | 19:43.52 | 3:58.44 | 88777 | 106670
7 | 23:42.21 | 3:37.67 | 106671 | 123012
8 | 27:20.13 | 4:41.05 |&nb
b9164a49a06fde1c429fae2fe957baf5da7b4e86(2000) Bomfunk MCs / In Stereo (Special 2CD Edition) (Electro, Hip-Hop, Funk) [FLAC (tracks+.cue), lossless] (2000) Bomfunk MCs / In Stereo (Special 2CD Edition) (Electro, Hip-Hop, Funk) [FLAC (tracks+.cue), lossless] " />

Аплоадер: Админ, дата: 9-09-2012, 20:16, торрент скачан: 359 раз

Понравилась раздача? Посмотрите эти:
  • (2013) Bon Jovi / What About Now (Deluxe Edition) (Hard Rock) [FLAC (tracks ...
  • (2010) Tinie Tempah / Disc-Overy (Hip-Hop/ Grime) [FLAC (tracks+ .cue) loss ...
  • (2010) Zaz / Zaz (Nu jazz, Chanson, Soul) [FLAC (tracks+.cue), lossless]
  • (2008) Adele / 19 {2CD EXPANDED EDITION} (Blues / Funk / Gospel) [FLAC (tra ...
  • (2011) Daughtry / Break the Spell (Deluxe Edition) (Alt. Rock / Modern Rock ...
  • (2011) Lil Wayne / Tha Carter IV (Rap, Hip-Hop) [FLAC (tracks+.cue), loss ...
  • (2011) Korn (KoЯn) / The Path Of Totality (Special Edition) (Nu Metal | Dub ...
  • (2011) Foster the People / Torches [Best Buy Exclusive Edition] (Indie / El ...
  • (2009) Dead By Sunrise / Out Of Ashes (Japanese Edition) (Alternative Rock) ...
  • (2011) Виктория - победительница / Victorious (OST) [FLAC (tracks+.cue), lo ...
  • (2011) B.B. King / Icon (Blues) [FLAC (tracks+.cue), lossless]
  • (2011) Lil Wayne / Tha Carter IV (Target Deluxe Edition) (Hip-Hop) [FLAC (t ...
  • (2011) Chris Brown / F.A.M.E. (Deluxe Edition) (R&B) [FLAC (tracks+.cue), l ...
  • (1999) Muffler / Muffler (Drum & Bass) [FLAC (tracks+.cue), lossless]
  • (2012) Netsky / 2 (Drum & Bass, Dubstep) [FLAC (tracks+.cue), lossless]
  • (2011) Ляпис Трубецкой / Веселые картинки (Rock) [FLAC (tracks+.cue), lossl ...
  • (2011) Ленинград / Хна (Rock) [FLAC (tracks+.cue), lossless]
  • (2012) Les Friction / Les Friction (Alt. Rock/Neo-Classical/Orchestral) [FL ...
  • (2011) The Browning / Burn This World (Deathcore/Electronic) [FLAC (tracks+ ...
  • (2011) Phinehas / Thegodmachine (Metalcore) [FLAC (tracks+.cue), lossless]
  • Информация
    Посетители, находящиеся в группе Гости, не могут оставлять комментарии к данной публикации.