вход на сайт

Имя пользователя :
Пароль :

Восстановление пароля Регистрация
(1996) DJ Dado / The Album (Electronic, Dream trance) [FLAC (image+.сue), lossless]
Рейтинг:
(голосов: 1)



[img]{THEME}/images/logopost.png[/img]



Исполнитель: DJ Dado
Альбом: The Album
Страна: Italy
Тип альбома: Студийный
Год выпуска: 1996
Жанр: Electronic, Dream trance
Формат: FLAC (image+.сue)
Битрейт: lossless
Продолжительность: 00:53:10

Tреклист:
01. Metropolis[2:08]
02. The Legend Of Babel[4:00]
03. X-Files[3:58]
04. Dreaming[4:04]
05. Mission Impossible Theme[4:14]
06. Temple Of Fire[4:06]
07. Solar Wind[4:16]
08. Dreamscape[4:19]
09. Broke Your Heart[4:06]
10. Twin Peaks Theme[4:20]
11. Desert Of Sadness[3:41]
12. Floreal World[4:06]
13. Once Upon A Time In America Theme[3:46]
14. The End Of Journey[2:08]

Лог создания рипа ▼TextExact Audio Copy V0.99 prebeta 5 from 4. May 2009

EAC extraction logfile from 10. December 2009, 23:56

DJ Dado / The Album

Used drive : ASUS DRW-24B1ST Adapter: 3 ID: 0

Read mode : Secure
Utilize accurate stream : Yes
Defeat audio cache : Yes
Make use of C2 pointers : No

Read offset correction : 6
Overread into Lead-In and Lead-Out : No
Fill up missing offset samples with silence : Yes
Delete leading and trailing silent blocks : No
Null samples used in CRC calculations : Yes
Used interface : Installed external ASPI interface

Used output format : Monkeys Audio Lossless Encoder v3.99 DLL
Sample format : High Lossless Compression


TOC of the extracted CD

Track | Start | Length | Start sector | End sector
---------------------------------------------------------
1 | 0:00.00 | 2:07.68 | 0 | 9592
2 | 2:07.68 | 3:59.56 | 9593 | 27573
3 | 6:07.49 | 3:57.55 | 27574 | 45403
4 | 10:05.29 | 4:04.10 | 45404 | 63713
5 | 14:09.39 | 4:13.73 | 63714 | 82761
6 | 18:23.37 | 4:05.70 | 82762 | 101206
7 | 22:29.32 | 4:15.56 | 101207 | 120387
8 | 26:45.13 | 4:18.47 | 120388 | 139784
9 | 31:03.60 | 4:06.12 | 139785 | 158246
10 | 35:09.72 | 4:19.58 | 158247 | 177729
11 | 39:29.55 | 3:40.43 | 177730 | 194272
12 | 43:10.23 | 4:05.61 | 194273 | 212708
13 | 47:16.09 | 3:45.42 | 212709 | 229625
14 | 51:01.51 | 2:08.37 | 229626 | 239262


R
187fbf9424f8ffe6da3ace4f443dcd94525bee5a(1996) DJ Dado / The Album (Electronic, Dream trance) [FLAC (image+.сue), lossless] (1996) DJ Dado / The Album (Electronic, Dream trance) [FLAC (image+.сue), lossless] " />

Аплоадер: Админ, дата: 13-03-2012, 18:50, торрент скачан: 359 раз

Понравилась раздача? Посмотрите эти:
  • (1993) Mick Jagger / Wandring Spirit (Rock) [FLAC(image+.cue), lossless]
  • (1996) George Michael / Older (1st Press Japan) (Electronic, Pop/Rock) [FLA ...
  • (Дискография, 2008 - 2013) Empire Of The Sun (Synthpop, Electronic) [FLAC ...
  • (2010) Schiller / Greatest Hits (2 CD) (Electronic,Downtempo, Trance, Ambi ...
  • (2009, сборник) VA / Christmas Chill Out Lounge (Chillout) [FLAC (image + . ...
  • (2007) GORILLAZ / D-Sides [Japan Edition] (Hip-Hop) [FLAC (image+cue), loss ...
  • (1989) Kaoma / Lambada (lambada / latin / ethnic) [FLAC (image+.cue), lossl ...
  • (2010) Сергей Трофимов (Трофим) / Всё не важно (Шансон) [FLAC(image+.cue), ...
  • (2010) Ассаи / Лифт (Rap) [FLAC(image+.cue), lossless]
  • (2010) Начало / Inception (by Hans Zimmer) (Score) [FLAC (tracks+.cue) loss ...
  • (2011) The Prodigy / Worlds On Fire (Big Beat, Rave) [FLAC (image+.cue), lo ...
  • (Студийная дискография) Jon (Anderson) & Vangelis - 4 альбома (Electronic P ...
  • (2008) Юрий Наумов / Рок как будто Блюз (Blues) [FLAC (Image+.cue), lossles ...
  • (2009) D-Man 55 / 7.62 Б-30 (Rap) [FLAC (image+.cue) lossless]
  • (2002) PPK (ППК) / ReLoad. Russian Trance (Trance) [FLAC (tracks+cue), loss ...
  • (2011) 3 Doors Down / Time Of My Life [Deluxe Edition] (Alternative Rock/Po ...
  • (1976) The Eagles / Hotel California [Japan Remastered] (Country Rock) [FLA ...
  • (2010) Morcheeba / Blood Like Lemonade ( Electronic, Downtempo, Pop, Trip-h ...
  • (2010) Linkin Park / A Thousand Suns (Alternative, Electronic) [FLAC (track ...
  • (2011) Yanni / Truth Of Touch (New Age) [FLAC (image+ .cue),lossless]
  • (Full Studio Discography, 2011) George Michael (Japan) (Pop) [FLAC (image+. ...
  • (2011) Стас Михайлов / Только ты (Шансон) [Flac(image+.cue)Lossless]
  • (2009) Чиж & Co / Лучшее. Золотая коллекция (Rock) [FLAC (image+.cue), loss ...
  • (2009) Mystica / Second Dive (Trance, Ambient & Downtempo, Chill Out) [FLAC ...
  • (2010) Dutch / A Bright Cold Day (Trip-Hop) [FLAC (image+.cue), lossless]
  • Информация
    Посетители, находящиеся в группе Гости, не могут оставлять комментарии к данной публикации.