вход на сайт

Имя пользователя :
Пароль :

Восстановление пароля Регистрация
(2009) Koan / When The Silence Is Speaking (Ambient, Downtempo, Chillout) [FLAC (tracks+.сue), lossless]
Рейтинг:
(голосов: 1)



[img]{THEME}/images/logopost.png[/img]



Исполнитель: Koan
Альбом: When The Silence Is Speaking
Страна: Германия
Лейбл: Blue Tunes Recordings
Тип альбома: Студийный
Год выпуска: 2009
Жанр: Ambient, Downtempo, Chillout
Формат: FLAC (tracks+.сue)
Битрейт: lossless
Продолжительность: 01:19:05

Tреклист:
01 Back to the Silent Lagoon (Blue mix) (09:29)
02 Selenas Song (Blue mix) (11:00)
03 After the Guiding Venus (07:57)
04 The Island of Deceased Ships (07:32)
05 Dance of Nereids (10:21)
06 Odysseus Under the Old Tree (09:16)
07 Underwater Moonlight (Blue mix) (08:02)
08 When the Silence is Speaking (Blue mix) (11:16)
09 Dolphin and Eos (04:12)


Лог создания рипа ▼TextExact Audio Copy V0.99 prebeta 5 from 4. May 2009

EAC extraction logfile from 16. December 2009, 20:05

Koan / When The Silence Is Speaking

Used drive : HL-DT-STDVDRAM GSA-H10N Adapter: 0 ID: 0

Read mode : Secure
Utilize accurate stream : Yes
Defeat audio cache : Yes
Make use of C2 pointers : No

Read offset correction : 667
Overread into Lead-In and Lead-Out : No
Fill up missing offset samples with silence : Yes
Delete leading and trailing silent blocks : No
Null samples used in CRC calculations : Yes
Used interface : Native Win32 interface for Win NT & 2000
Gap handling : Appended to previous track

Used output format : Internal WAV Routines
Sample format : 44.100 Hz; 16 Bit; Stereo


TOC of the extracted CD

Track | Start | Length | Start sector | End sector
---------------------------------------------------------
1 | 0:00.00 | 9:28.56 | 0 | 42655
2 | 9:28.56 | 10:59.45 | 42656 | 92125
3 | 20:28.26 | 7:57.15 | 92126 | 127915
4 | 28:25.41 | 7:32.10 | 127916 | 161825
5 | 35:57.51 | 10:21.15 | 161826 | 208415
6 | 46:18.66 | 9:16.23 | 208416 | 250138
7 | 55:35.14 | 8:02.00 | 250139 | 286288
8 | 63:37.14 | 11:16.00 | 286289 | 336988
9 | 74:53.14 | 4:11.41 | 336989 | 355854


Track 1

Filename C:UsersAdmiNDesktopKoan_-_When_The_Silence_Is_Speaking-2009-FLAC1. Koan - Back to the Silent Lagoon (Blue mix).wav

Pre-gap length 0:00:02.00

Peak level 99.9 %
Track quality 100.0 %
Test CRC 482EE2A0
Copy CRC 482EE2A0
Copy OK

Track 2

Filename C:UsersAdmiNDesktopKoan_-_When_The_Silence_Is_Speaking-2009-FLAC2. Koan - Selenas Song (Blue mix).wav

Pre-gap length 0:00:02.00

Peak level 99.9 %
&nb
525c1eeb88459d200fa5985a61b44527994c5173(2009) Koan / When The Silence Is Speaking (Ambient, Downtempo, Chillout) [FLAC (tracks+.сue), lossless] (2009) Koan / When The Silence Is Speaking (Ambient, Downtempo, Chillout) [FLAC (tracks+.сue), lossless] " />

Аплоадер: Админ, дата: 18-02-2012, 19:11, торрент скачан: 359 раз

Понравилась раздача? Посмотрите эти:
  • (2002, Сборник) VA / Chill Out Edition (2xCD) (Lounge, Chillout, Downtempo, ...
  • (Дискография) 1981-2009 Depeche Mode (Electronic, Synthpop) [FLAC (tracks+ ...
  • (Дискография) GORILLAZ (Trip-Hop) [FLAC (tracks + .cue) lossless]
  • (2011) Bad Meets Evil [Eminem & Royce Da 59] / Hell: The Sequel [Deluxe Edi ...
  • (2006) Великие Композиторы / Жизнь и Творчество - Бетховен (Classical) [Fla ...
  • (2001) Bloodthorn / Under the Reign of Terror (Black/Death Metal) [Flac(tra ...
  • (Сборник, 2005-2007) Jens Gad (ex. Enigma) / 3 альбома (Downtempo, Ambient) ...
  • (2002) PPK (ППК) / ReLoad. Russian Trance (Trance) [FLAC (tracks+cue), loss ...
  • (2010) Ravenna / Debrief (Alt. Rock / Christian Rock / Indie) [FLAC (tracks ...
  • (2009) CHRIS BROWN / Graffiti original (Deluxe Edition) + Bonus tracks (RnB ...
  • (2006) The Rasmus / Shot (Single) (Alternative Rock) [FLAC (tracks+.cue), l ...
  • (2010) Morcheeba / Blood Like Lemonade ( Electronic, Downtempo, Pop, Trip-h ...
  • (2009) Miley Cyrus / The Time of Our Lives (Pop) [FLAC (tracks+.cue), lossl ...
  • (2010) Кукрыниксы / Всадники Света (Punk Rock) [FLAC (tracks+.cue), lossles ...
  • (2011) Linkin Park / Iridescent (Alternative Rock) [FLAC(image+.cue), lossl ...
  • (2011) This Will Destroy You / Tunnel Blanket (Post Rock) [FLAC (tracks+.cu ...
  • (2004) Дельфин / Запись концерта 19.11.04 (Alternative|Experimental) [FLAC ...
  • (2009) Exivious (Ex. Cynic) / Exivious (Progressive Metal/Death Metal) [FLA ...
  • (2012) Оргия Праведников / Шитрок (Rock/Progressive Rock) [FLAC (tracks+cue ...
  • (2011) Ink Stained Promises / Relations. (Metalcore, Hardcore) [FLAC (track ...
  • Информация
    Посетители, находящиеся в группе Гости, не могут оставлять комментарии к данной публикации.