вход на сайт

Имя пользователя :
Пароль :

Восстановление пароля Регистрация
(2002) PPK (ППК) / ReLoad. Russian Trance (Trance) [FLAC (tracks+cue), lossless]
Рейтинг:
(голосов: 1)



[img]{THEME}/images/logopost.png[/img]



Исполнитель: PPK (ППК)
Альбом: ReLoad. Russian Trance
Страна: Россия
Тип альбома: Single
Год выпуска: 2002
Жанр: Trance
Формат: FLAC (tracks+cue)
Битрейт: lossless
Продолжительность: 00:32:31

Tреклист:
1. ReLoad (Radio Mix) (03:00)
2. ReLoad (Space Club Mix) (09:33)
3. ReLoad (Trailer Trash Remix) (07:40)
4. Russian Trance (Radio Mix) (03:26)
5. Russian Trance (Club Mix) (06:42)
6. ReLoad (Robots Outro) (02:08)

"Отчет EAC:" ▼TextExact Audio Copy V0.99 prebeta 5 from 4. May 2009

EAC extraction logfile from 11. July 2010, 16:57

PPK / ReLoad / Russian Trance

Used drive : PLEXTOR DVDR PX-760A Adapter: 0 ID: 0

Read mode : Secure
Utilize accurate stream : Yes
Defeat audio cache : Yes
Make use of C2 pointers : No

Read offset correction : 30
Overread into Lead-In and Lead-Out : No
Fill up missing offset samples with silence : Yes
Delete leading and trailing silent blocks : No
Null samples used in CRC calculations : Yes
Used interface : Installed external ASPI interface
Gap handling : Appended to previous track

Used output format : User Defined Encoder
Selected bitrate : 128 kBit/s
Quality : High
Add ID3 tag : No
Command line compressor : C:Program Files (x86)Exact Audio CopyFlacflac.exe
Additional command line options : -8 -V -T "ARTIST=%a" -T "TITLE=%t" -T "ALBUM=%g" -T "DATE=%y" -T "TRACKNUMBER=%n" -T "GENRE=%m" -T "COMMENT=ripped by DrStandBy" %s


TOC of the extracted CD

Track | Start | Length | Start sector | End sector
---------------------------------------------------------
1 | 0:00.00 | 3:02.68 | 0 | 13717
2 | 3:02.68 | 9:35.64 | 13718 | 56906
3 | 12:38.57 | 7:43.17 | 56907 | 91648
4 | 20:21.74 | 3:29.37 | 91649 | 107360
5 | 23:51.36 | 6:45.30 | 107361 | 137765
6 | 30:36.66 | 2:08.56 | 137766 | 147421


Track 1

Filename D:PPK2002 - PPK - Reload Russian Trance1. PPK - ReLoad (Radio Mix).wav

Pre-gap length 0:00:02.00

Peak level 86.1 %
Track quality 100.0 %
Test CRC 01A93C0E
Copy CRC 01A93C0E
Track not present in AccurateRip database
Copy OK

Track 2

Filename D:PPK2002 - PPK - Reload Russian Trance2. PPK - ReLoad (Space Club Mix).wav

Pre-gap length 0:00:02.80

Peak leve
a5d4dde3f852e062343f99df059ccb0152c44797(2002) PPK (ППК) / ReLoad. Russian Trance (Trance) [FLAC (tracks+cue), lossless] (2002) PPK (ППК) / ReLoad. Russian Trance (Trance) [FLAC (tracks+cue), lossless] " />

Аплоадер: Админ, дата: 2-01-2012, 21:58, торрент скачан: 359 раз

Понравилась раздача? Посмотрите эти:
  • (2013) Girls Generation (SNSD) - Galaxy Supernova / Galaxy Supernova (KPop) ...
  • (2012) Signum / Remixed (Trance) [FLAC (tracks+.cue), Lossless]
  • (2008) Oceanlab / Sirens Of The Sea (Trance, Progressive Trance) [FLAC (tra ...
  • (2010) Zaz / Zaz (Nu jazz, Chanson, Soul) [FLAC (tracks+.cue), lossless]
  • (2011) Depeche Mode / Personal Jesus 2011 Club Promo (Electronic, Synthpop) ...
  • (2008) Karunesh /Enlightenment (New Age) [FLAC (image+.cue), lossless]
  • (2011) Orjan Nilsen / In My Opinion (Trance) [FLAC (tracks+.cue), lossless] ...
  • (2010) Ravenna / Debrief (Alt. Rock / Christian Rock / Indie) [FLAC (tracks ...
  • (2011) B.B. King / Icon (Blues) [FLAC (tracks+.cue), lossless]
  • (2012) Paul Van Dyk / Evolution (Progressive House, Trance) [FLAC (tracks+. ...
  • (2006) The Rasmus / Shot (Single) (Alternative Rock) [FLAC (tracks+.cue), l ...
  • (2011) Linkin Park / Iridescent (Alternative Rock) [FLAC(image+.cue), lossl ...
  • (2011) Gandharva / Lord of the Universe (New Age, Classical, Erhu) [FLAC (t ...
  • (2011) Rammstein / Mein Land (Neue Deutsche Harte, Industrial, Tanz-Metal) ...
  • (2011) This Will Destroy You / Tunnel Blanket (Post Rock) [FLAC (tracks+.cu ...
  • (2011) Ленинград / Хна (Rock) [FLAC (tracks+.cue), lossless]
  • (2004) Дельфин / Запись концерта 19.11.04 (Alternative|Experimental) [FLAC ...
  • (Дискография, 2002 - 2012) Rodrigo y Gabriela (Acoustic, Flamenco, Classica ...
  • (2012) Nightwish / The Crow, The Owl And The Dove (Sympho-Power Metal) [FLA ...
  • (2011) SeeS / The enD (Progressive/Math Metal) [FLAC (tracks+.cue), lossles ...
  • (2009) Exivious (Ex. Cynic) / Exivious (Progressive Metal/Death Metal) [FLA ...
  • (2012) KoRn feat. Skrillex / Chaos Lives In Everything (UK Promo) (Nu-metal ...
  • (2011) Phinehas / Thegodmachine (Metalcore) [FLAC (tracks+.cue), lossless]
  • (2011) Ink Stained Promises / Relations. (Metalcore, Hardcore) [FLAC (track ...
  • (2012) Dash Berlin / #musicislife (Trance) [FLAC (tracks+.сue), lossless]
  • Информация
    Посетители, находящиеся в группе Гости, не могут оставлять комментарии к данной публикации.