вход на сайт

Имя пользователя :
Пароль :

Восстановление пароля Регистрация
(2011) Depeche Mode / Personal Jesus 2011 Club Promo (Electronic, Synthpop) [FLAC (tracks+.cue), lossless]
Рейтинг:
(голосов: 1)



[img]{THEME}/images/logopost.png[/img]



Исполнитель: Depeche Mode
Альбом: Personal Jesus 2011 (PCD BONG 43)
Тип альбома: Club Promo-Single
Год выпуска: 2011
Жанр: Electronic, Synthpop
Формат: FLAC (tracks+.cue)
Битрейт: lossless
Продолжительность: 00:32:37

Tреклист:
01. Personal Jesus (The Stargate Mix) [03:57]
02. Personal Jesus (Alex Metric Remix Edit) [03:29]
03. Personal Jesus (Alex Metric Remix) [05:57]
04. Personal Jesus (Eric Prydz Remix) [07:26]
05. Personal Jesus (M.A.N. Remix) [05:23]
06. Personal Jesus (Sie Medway-Smith Remix) [06:25]

"Отчет EAC" ▼TextExact Audio Copy V1.0 beta 1 from 15. November 2010

EAC extraction logfile from 26. April 2011, 15:25

Depeche Mode / Personal Jesus 2011 (PCDbong43)

Used drive : PIONEER DVD-RW DVR-108 Adapter: 0 ID: 1

Read mode : Secure
Utilize accurate stream : Yes
Defeat audio cache : Yes
Make use of C2 pointers : No

Read offset correction : 48
Overread into Lead-In and Lead-Out : Yes
Fill up missing offset samples with silence : Yes
Delete leading and trailing silent blocks : No
Null samples used in CRC calculations : Yes
Used interface : Native Win32 interface for Win NT & 2000
Gap handling : Appended to previous track

Used output format : User Defined Encoder
Selected bitrate : 896 kBit/s
Quality : High
Add ID3 tag : No
Command line compressor : D:util - eacFlac lac.exe
Additional command line options : -V -8 -T "artist=%a" -T "title=%t" -T "album=%g" -T "date=%y" -T "tracknumber=%n" -T "genre=%m" %s

TOC of the extracted CD

Track | Start | Length | Start sector | End sector
---------------------------------------------------------
1 | 0:00.00 | 3:57.19 | 0 | 17793
2 | 3:57.19 | 3:29.15 | 17794 | 33483
3 | 7:26.34 | 5:57.12 | 33484 | 60270
4 | 13:23.46 | 7:26.06 | 60271 | 93726
5 | 20:49.52 | 5:23.74 | 93727 | 118025
6 | 26:13.51 | 6:25.07 | 118026 | 146907

Track 1

Filename D:munkakeac. Personal Jesus (The Stargate Mix).wav

Pre-gap length 0:00:02.00

Peak level 100.0 %
Extraction speed 4.5 X
Track quality 100.0 %
Test CRC C90F5CA6
Copy CRC C90F5CA6
Track not present in AccurateRip database
Copy OK

Track 2

Filename D:munkakeac. Personal Jesus (Alex Metric Remix Edit).wav

Pre-gap length 0:00:00.20

Peak level 100.0 %
&
642444ff5632663a1258629040342d94ea299849(2011) Depeche Mode / Personal Jesus 2011 Club Promo (Electronic, Synthpop) [FLAC (tracks+.cue), lossless] (2011) Depeche Mode / Personal Jesus 2011 Club Promo (Electronic, Synthpop) [FLAC (tracks+.cue), lossless] " />

Аплоадер: Админ, дата: 25-05-2011, 19:32, торрент скачан: 359 раз

Понравилась раздача? Посмотрите эти:
  • (2013) Girls Generation (SNSD) - Galaxy Supernova / Galaxy Supernova (KPop) ...
  • (2013) Depeche Mode - Heaven (CD Maxi-Single) (Synthpop) [FLAC (image+.cue) ...
  • (2011) Depeche Mode / Depeche Mode - Personal Jesus (dj Miller Remix) (Hous ...
  • (2010) Zaz / Zaz (Nu jazz, Chanson, Soul) [FLAC (tracks+.cue), lossless]
  • (Дискография, 1994-2011) Cake (Indie Rock) [FLAC (tracks+.cue), losslesss]
  • (2011) Orjan Nilsen / In My Opinion (Trance) [FLAC (tracks+.cue), lossless] ...
  • (2002) PPK (ППК) / ReLoad. Russian Trance (Trance) [FLAC (tracks+cue), loss ...
  • (2010) Ravenna / Debrief (Alt. Rock / Christian Rock / Indie) [FLAC (tracks ...
  • (2011) B.B. King / Icon (Blues) [FLAC (tracks+.cue), lossless]
  • (2006) The Rasmus / Shot (Single) (Alternative Rock) [FLAC (tracks+.cue), l ...
  • (2012) Madonna / Superstar (Pop) [FLAC (image+.cue), lossless]
  • (2011) Linkin Park / Iridescent (Alternative Rock) [FLAC(image+.cue), lossl ...
  • (2011) Stargazery / Eye On The Sky (Heavy Metal) [FLAC (image+.cue), lossle ...
  • (2011) Rammstein / Mein Land (Neue Deutsche Harte, Industrial, Tanz-Metal) ...
  • (2011) This Will Destroy You / Tunnel Blanket (Post Rock) [FLAC (tracks+.cu ...
  • (2011) Ленинград / Хна (Rock) [FLAC (tracks+.cue), lossless]
  • (2011) SeeS / The enD (Progressive/Math Metal) [FLAC (tracks+.cue), lossles ...
  • (2011) The Browning / Burn This World (Deathcore/Electronic) [FLAC (tracks+ ...
  • (2012) KoRn feat. Skrillex / Chaos Lives In Everything (UK Promo) (Nu-metal ...
  • (2011) Ink Stained Promises / Relations. (Metalcore, Hardcore) [FLAC (track ...
  • Информация
    Посетители, находящиеся в группе Гости, не могут оставлять комментарии к данной публикации.