вход на сайт

Имя пользователя :
Пароль :

Восстановление пароля Регистрация
(2011) Moby / Destroyed (Electronic, Downtempo, Ambient) [FLAC (tracks+.cue), lossless]
Рейтинг:
(голосов: 1)



[img]{THEME}/images/logopost.png[/img]



Moby - Destroyed


Исполнитель: Moby
Альбом: Destroyed
Тип альбома: Студийный (LP)
Год выпуска: 2011
Жанр: Electronic, Downtempo, Ambient
Формат: FLAC (tracks+.cue)
Битрейт: lossless
Продолжительность: 01:11:46

Tреклист:
01. The Broken Places [4:10]
02. Be The One [3:29]
03. Sevastopol [4:21]
04. The Low Hum [4:13]
05. Rockets [4:47]
06. The Day[4:32]
07. Lie Down In Darkness [4:26]
08. Victoria Lucas [5:54]
09. After [5:30]
10. Blue Moon [5:30]
11. The Right Thing [4:26]
12. Stella Maris [5:14]
13. The Violent Bear It Away [6:50]
14. Lacrimae [8:05]
15. When You Are Old [2:19]

Отчет XLD:
▼TextX Lossless Decoder version 20110508 (133.0)

XLD extraction logfile from 2011-05-11 22:01:31 -0400

Moby / Destroyed

Used drive : HL-DT-ST DVDRW GSA-S10N (revision AP09)

Ripper mode : CDParanoia III 10.2
Disable audio cache : OK for the drive with a cache less than 2750KiB
Make use of C2 pointers : NO
Read offset correction : 667
Max retry count : 100
Gap status : Analyzed, Appended (except HTOA)

TOC of the extracted CD
Track | Start | Length | Start sector | End sector
---------------------------------------------------------
1 | 00:00:00 | 04:09:70 | 0 | 18744
2 | 04:09:70 | 03:29:25 | 18745 | 34444
3 | 07:39:20 | 04:20:54 | 34445 | 53998
4 | 11:59:74 | 04:12:73 | 53999 | 72971
5 | 16:12:72 | 04:47:21 | 72972 | 94517
6 | 21:00:18 | 04:32:15 | 94518 | 114932
7 | 25:32:33 | 04:25:39 | 114933 | 134846
8 | 29:57:72 | 05:54:37 | 134847 | 161433
9 | 35:52:34 | 05:29:40 | 161434 | 186148
10 | 41:21:74 | 03:30:50 | 186149 | 201948
11 | 44:52:49 | 04:25:54 | 201949 | 221877
12 | 49:18:28 | 05:13:59 | 221878 | 245411
13 | 54:32:12 | 06:50:28 | 245412 | 276189
14 | 61:22:40 | 08:05:09 | 276190 | 312573
15 | 69:27:49 | 02:18:59 | 312574 | 322982

AccurateRip Summary
Disc not found in AccurateRip DB.

All Tracks
Album gain : -8.17 dB
Peak : 0.988586
Statistics
Read error : 0
Skipped (treated as error) : 0
Edge jitter error (maybe fixed)
6398c7279f474d119accf06a0b696ca245769635(2011) Moby / Destroyed (Electronic, Downtempo, Ambient) [FLAC (tracks+.cue), lossless] (2011) Moby / Destroyed (Electronic, Downtempo, Ambient) [FLAC (tracks+.cue), lossless] " />

Аплоадер: Админ, дата: 14-05-2011, 01:02, торрент скачан: 359 раз

Понравилась раздача? Посмотрите эти:
  • (2013) Kanye West | Yeezus (Rap|Experimental Hip-Hop) [FLAC (tracks+.cue), ...
  • (2012) The Lumineers / The Lumineers (Indie-folk, Folk-rock) [FLAC (tracks+ ...
  • (2013) Paramore / Paramore (Japan Edition) (Alternative Rock) [FLAC (tracks ...
  • (2013) Bullet For My Valentine / Temper Temper (Japanese Deluxe Edition) (M ...
  • (2012) Владимир Кузьмин / Endorfin (Русский Рок) [FLAC (image+.cue), lossle ...
  • (2010) Schiller / Greatest Hits (2 CD) (Electronic,Downtempo, Trance, Ambi ...
  • (2010) Sungha Jung / Perfect Blue (Acoustic, Fingerstyle Guitar) [FLAC (tra ...
  • (2011) Sungha Jung / Irony (Acoustic guitar, Fingerstyle) [FLAC (tracks+.cu ...
  • (2009) Koan / When The Silence Is Speaking (Ambient, Downtempo, Chillout) [ ...
  • (2012) Bruce Springsteen / Wrecking Ball (Folk Rock) [FLAC (tracks+.cue),l ...
  • (2012) Norah Jones / Little Broken Hearts (Vocal Jazz, Alternative Rock) [F ...
  • (2009) Paul Cardall / Sacred Piano (New Age) [FLAC (tracks+.cue), lossless] ...
  • (2012) Hans Zimmer / The Dark Knight Rises (Film score) [FLAC (tracks+.cu ...
  • (2012) Mouse On Mars / Parastrophics (Leftfield, Abstract, Rhythmic Noise, ...
  • (2012) Linkin Park / LP Underground 12 (Alternative Rock) [FLAC (tracks+.cu ...
  • (2010) Enduser / 1-3 (DnB, Dubstep, Breakcore) [FLAC (tracks+.cue), lossles ...
  • (2010) Morcheeba / Blood Like Lemonade ( Electronic, Downtempo, Pop, Trip-h ...
  • (2011) Moby / Be The One (EP) (Electronic / Ambient) [MP3, 320/CBR]
  • (2011) Moby / Destroyed (Japan Edition) (Electronic, Techno, Progressive Ho ...
  • (2012) Lana Del Rey / Born To Die (Indie Pop) [FLAC (tracks+.cue), lossless ...
  • (2012) The Fray / Scars & Stories (Alternative/Rock/Piano Rock) [FLAC (trac ...
  • (2012) Unheilig / Lichter der Stadt (Limited Edition, 2CD) (Industrial, Got ...
  • (2012) Young Guns / Bones (Alternative Rock) [FLAC (tracks +.cue), lossless ...
  • (2012) Switchfoot / Vice Re-Verses (Remixes) (Alternative, Christian Rock, ...
  • (2011) 7eventh Time Down / Alive In You (Alternative Rock/Modern Rock/Chris ...
  • Информация
    Посетители, находящиеся в группе Гости, не могут оставлять комментарии к данной публикации.