вход на сайт

Имя пользователя :
Пароль :

Восстановление пароля Регистрация
(2010) Unkle - Where Did The Night Fall, (Electronic, Trip-Hop), [FLAC (tracks+.cue)lossless]
Рейтинг:
(голосов: 1)



[img]{THEME}/images/logopost.png[/img]



Unkle - Where Did The Night Fall - 2010, FLAC (tracks+.cue), lossless

Исполнитель: Unkle
Альбом: Where Did The Night Fall
Тип альбома: Студийный (Surrender All, USA)
Год выпуска: 2010
Жанр: Electronic, Trip-Hop
Формат: FLAC (tracks+.cue)
Битрейт: lossless
Продолжительность: 57:14

Tреклист:
01. Nowhere (0:41)
02. Follow Me Down feat. Sleepy Sun (4:23)
03. Natural Selection feat. The Black Angels (4:11)
04. Joy Factory feat. Autolux (3:59)
05. The Answer feat. Big In Japan (Baltimore) (4:41)
06. On A Wire feat. ELLE. J (4:53)
07. Falling Stars feat. Gavin Clark (5:49)
08. Heavy Drug (1:13)
09. Caged Bird feat. Katrina Ford (5:08)
10. Ablivion (4:30)
11. The Runaway feat. ELLE. J (3:46)
12. Ever Rest feat. Joel Cadbury (4:21)
13. The Healing feat. Gavin Clark (4:27)
14. Another Night Out feat. Mark Lanegan (5:12)

"Отчет EAC" ▼
Exact Audio Copy V0.99 prebeta 5 from 4. May 2009

EAC extraction logfile from 13. April 2010, 6:37

Unkle / Where Did The Night Fall

Used drive: TDK CDRW241040X Adapter: 1ID: 1

Read mode : Secure
Utilize accurate stream : Yes
Defeat audio cache: Yes
Make use of C2 pointers : No

Read offset correction: 688
Overread into Lead-In and Lead-Out: No
Fill up missing offset samples with silence : Yes
Delete leading and trailing silent blocks : No
Null samples used in CRC calculations : Yes
Used interface: Native Win32 interface for Win NT & 2000
Gap handling: Appended to previous track

Used output format : Internal WAV Routines
Sample format: 44.100 Hz; 16 Bit; Stereo

TOC of the extracted CD

Track | Start|Length| Start sector | End sector
---------------------------------------------------------
1|0:00.00 |0:40.60 | 0| 3059
2|0:40.60 |4:23.05 |3060|22789
3|5:03.65 |4:10.57 | 22790|41596
4|9:14.47 |3:59.18 | 41597|59539
5| 13:13.65 |4:40.45 | 59540|80584
6| 17:54.35 |4:52.73 | 80585| 102557
7| 22:47.33 |5:48.72 |102558| 128729
&n
f3f2c5593a33517a2d067b9ed67d710071ac9437(2010) Unkle - Where Did The Night Fall, (Electronic, Trip-Hop), [FLAC (tracks+.cue)lossless] (2010) Unkle - Where Did The Night Fall, (Electronic, Trip-Hop), [FLAC (tracks+.cue)lossless] " />

Аплоадер: Админ, дата: 10-03-2011, 13:45, торрент скачан: 359 раз

Понравилась раздача? Посмотрите эти:
  • (Дискография, 2009-2013) The Lonely Island / 3 Альбома (Rap/Hip-Hop) FLAC ( ...
  • (2010) Schiller / Greatest Hits (2 CD) (Electronic,Downtempo, Trance, Ambi ...
  • (2009) SHAKIRA / She Wolf (US Edition) (Pop) [Flac (tracks+.cue), lossless] ...
  • (2010)Scorpions/Sting In The Tail [FLAC (tracks+cue), lossless]
  • (2010) ПИKНИК / Театр Абсурда (Art-Rock) [FLAC (tracks+.cue), lossless]
  • (2010) Deftones / Diamond Eyes (Nu metal / Alternative) [FLAC, (tracks+ cu ...
  • (2008) Pink / Funhouse (Pop) [FLAC (tracks) lossless]
  • (Дискография) GORILLAZ (Trip-Hop) [FLAC (tracks + .cue) lossless]
  • (2010) Eminem / Recovery (Rap / Hip-Hop) [FLAC (tracks+.cue) lossless]
  • (2010) Tinie Tempah / Disc-Overy (Hip-Hop/ Grime) [FLAC (tracks+ .cue) loss ...
  • (2010) Баста и Гуф / Баста / Гуф (Rap) [FLAC (tracks+.cue) lossless]
  • (2010) Michael Jackson - Michael (Pop) [FLAC, (tracks+.cue), lossless]
  • (2010) Daft Punk / Tron: Legacy (Score) [FLAC (tracks+.cue) lossless]
  • (2011) Bad Meets Evil [Eminem & Royce Da 59] / Hell: The Sequel [Deluxe Edi ...
  • (2011) Michael Bublé / Christmas (Limited Edition) (Vocal Jazz, Christmas) ...
  • (2011) Lil Wayne / Tha Carter IV (Rap, Hip-Hop) [FLAC (tracks+.cue), loss ...
  • (2000) Bomfunk MCs / In Stereo (Special 2CD Edition) (Electro, Hip-Hop, Fun ...
  • (2010) Ne-Yo / Libra Scale (Japanese Edition) (RnB) [FLAC (tracks+.cue) los ...
  • (2010) Rihanna / Loud (R&B) [FLAC (tracks+.cue), lossless]
  • (2010) Noisia / Split The Atom (Drum & Bass, Electro) [FLAC (tracks)]
  • (2011) Nu:Tone / Words and Pictures(Drum & Bass / Liquid Funk) [FLAC (track ...
  • (2009) THE CRYSTAL METHOD - Divided By Night - (Breakbeat/Electronic/Breaks ...
  • (2010) Morcheeba / Blood Like Lemonade ( Electronic, Downtempo, Pop, Trip-h ...
  • (2010) Linkin Park / A Thousand Suns (Alternative, Electronic) [FLAC (track ...
  • (2012) Noize MC / Новый Альбом (Rap) [FLAC (tracks+.cue), lossless]
  • Информация
    Посетители, находящиеся в группе Гости, не могут оставлять комментарии к данной публикации.