вход на сайт

Имя пользователя :
Пароль :

Восстановление пароля Регистрация
(2010) YELLO / Yello By Yello. The Anthology (Limited Deluxe Edition 3CD+DVD) (Synthpop) [FLAC (image + .сue) lossless]
Рейтинг:
(голосов: 1)



[img]{THEME}/images/logopost.png[/img]



Исполнитель: Yello
Альбом: Yello By Yello. The Anthology (Limited Deluxe Edition 3CD+DVD)
Год выпуска: 2010
Жанр: Synthpop
Формат: FLAC (image + .сue)
Битрейт: lossless
Продолжительность: 01:12:32 + 01:12:49 + 01:14:33 + (video) 01:12:46

Tрэклист:
CD1. The Anthology vol.1▼
01. Dialectical Kid [0:03:03.47]
02. Liquid Lies [2010] [0:03:37.60]
03. Tears Run Dry [feat. Malia] [0:03:39.18]
04. Out Of Dawn [0:03:11.07]
05. Distant Solution [feat. Jade Davies] [0:03:50.53]
06. Soul On Ice [0:03:10.32]
07. Stay [feat. Heidi Happy] [0:03:01.58]
08. Junior B [feat. Jade Davies] [0:03:56.40]
09. S.A.X. [0:03:08.05]
10. Tangier Blue [0:02:40.17]
11. Fat Cry [0:04:07.58]
12. Time Palace [feat. Jade Davies] [0:03:41.02]
13. Oh Yeah 2009 [0:02:25.18]
14. Star Breath [0:04:54.25]
15. Tiger Dust [The Virtual Concert] [0:03:00.02]
16. Get On [0:03:23.55]
17. Kiss In Blue [0:03:33.73]
18. Move Dance Be Born [0:05:58.67]
19. Poom Shanka [0:03:26.15]
20. Planet Dada [Flamboyant] [0:04:41.58]

Отчёт EAC:▼
Exact Audio Copy V0.99 prebeta 5 from 4. May 2009

EAC extraction logfile from 4. November 2010, 20:36

Yello / Yello By Yello Anthology Vol. 1 [LDE]

Used drive: SlimtypeBDEDS4E1S Adapter: 0ID: 1

Read mode : Secure
Utilize accurate stream : Yes
Defeat audio cache: Yes
Make use of C2 pointers : No

Read offset correction: 6
Overread into Lead-In and Lead-Out: No
Fill up missing offset samples with silence : Yes
Delete leading and trailing silent blocks : No
Null samples used in CRC calculations : Yes
Used interface: Native Win32 interface for Win NT & 2000

Used output format: User Defined Encoder
Selected bitrate: 768 kBit/s
Quality : High
Add ID3 tag : No
Command line compressor : C:Program Files (x86)Exact Audio CopyFlac lac.exe
Additional command line options : -8 -V -T "DATE=%y" -T "GENRE=%m" %s

TOC of the extracted CD

Track | Start|Length| Start sector | End sector
---------------------------------------------------------
1|0:00.00 |3:03.47 | 0|13771
2|3:03.47 |3:37.60 | 13772|30106
3|6:41.32 |3:39.18 | 30107|46549
4| 10:20.50 |3:11.07 | 46550|&
4e906b0c93fd790d3bb30ca40bc8a2949dfebaf5(2010) YELLO / Yello By Yello. The Anthology (Limited Deluxe Edition 3CD+DVD) (Synthpop) [FLAC (image + .сue) lossless] (2010) YELLO / Yello By Yello. The Anthology (Limited Deluxe Edition 3CD+DVD) (Synthpop) [FLAC (image + .сue) lossless] " />

Аплоадер: Админ, дата: 20-02-2011, 14:39, торрент скачан: 359 раз

Понравилась раздача? Посмотрите эти:
Информация
Посетители, находящиеся в группе Гости, не могут оставлять комментарии к данной публикации.