вход на сайт

Имя пользователя :
Пароль :

Восстановление пароля Регистрация
(1977) Space / Deliverance (Electronica) [FLAC (image + .cue) lossless]
Рейтинг:
(голосов: 1)



[img]{THEME}/images/logopost.png[/img]



Исполнитель: Space
Альбом: Deliverance
Тип альбома: Официальный
Год выпуска: 1977
Жанр: Electronica
Формат: FLAC (image + .cue)
Битрейт: lossless
Продолжительность: 00:59:29

Tреклист:
[06:20] 01. Space - Prison
[07:04] 02. Space - Let Me Know The Wonder
[04:12] 03. Space - Running In The City
[04:23] 04. Space - Air Force
[05:33] 05. Space - Babys Paradise
[06:39] 06. Space - Delivrance
[03:30] 07. Space - Inner Voices (Bonus Track)
[03:26] 08. Space - Space Media (Bonus Track)
[03:57] 09. Space - Tender Force (Bonus Track)
[03:36] 10. Space - Robots (Bonus Track)
[03:28] 11. Space - On The Air (Bonus Track)
[07:15] 12. Space - Deeper Zone (Bonus Track)

Отчет EAC:
▼Exact Audio Copy V0.99 prebeta 3 from 28. July 2007

EAC extraction logfile from 8. December 2007, 11:39

Space / Deliverance

Used drive : LITE-ON DVDRW LH-20A1P Adapter: 0 ID: 2

Read mode : Secure
Utilize accurate stream : Yes
Defeat audio cache : Yes
Make use of C2 pointers : No

Read offset correction : 6
Overread into Lead-In and Lead-Out : No
Fill up missing offset samples with silence : Yes
Delete leading and trailing silent blocks : No
Null samples used in CRC calculations : Yes
Used interface : Installed external ASPI interface

Used output format : Internal WAV Routines
Sample format : 44.100 Hz; 16 Bit; Stereo

TOC of the extracted CD

Track | Start | Length | Start sector | End sector
---------------------------------------------------------
1 | 0:00.00 | 6:20.51 | 0 | 28550
2 | 6:20.51 | 7:04.21 | 28551 | 60371
3 | 13:24.72 | 4:12.74 | 60372 | 79345
4 | 17:37.71 | 4:23.63 | 79346 | 99133
5 | 22:01.59 | 5:33.39 | 99134 | 124147
6 | 27:35.23 | 6:39.46 | 124148 | 154118
7 | 34:14.69 | 3:30.73 | 154119 | 169941
8 | 37:45.67 | 3:26.38 | 169942 | 185429
9 | 41:12.30 | 3:57.31 | 185430 | 203235
10 | 45:09.61 | 3:36.12 | 203236 | 219447
11 | 48:45.73 | 3:28.17 | 219448 | 235064
12 | 52:14.15 | 7:15.12 | 235065 | 267701

Range status and errors

Selected range

Filename D:flogger77Space - Deliverance.wav

Peak level 97.7 %
Range quality 99.9 %
Copy CRC F06448D8
Copy OK

No errors occurred


End of status report

Отчет ABC:
▼-------------------------------------------------------
Filename : Space - Deliverance.flac (355.64mb)
Source : CDDA (probability 100%)
Detect Mode : 8
Date : 20.08.2008 01-52-31
-------------------------------------------------------
File Generated by Ape Batch Check 1.3b (build 24.11.2007)

Monkeys Audio : (c) Matthew T. Ashland; http://www.monkeysaudio.com/
auCDtect.exe : (c) Oleg Berngardt; Alexander Djourik; http://www.true-audio.com
FLAC : (c) Josh Coalson (GNU GPL)
Ape Batch Check : Bete Noire; http://betenoire.narod.ru/


Стол Заказов / Приём в РГ / Достижения РГ
Проверено Главным модератором lycan


46f5964209dd836a063049b633fd82a14526bb06(1977) Space / Deliverance (Electronica) [FLAC (image + .cue) lossless] (1977) Space / Deliverance (Electronica) [FLAC (image + .cue) lossless] " />

Аплоадер: Админ, дата: 23-03-2010, 16:19, торрент скачан: 359 раз

Понравилась раздача? Посмотрите эти:
  • (2013) Мумий Тролль / SOS Матросу - 2013, (Rock) [FLAC (image+.cue), lossle ...
  • (Дискография, 1977-2011) Space & Didier Marouani (Space, Synthpop) [MP3, 25 ...
  • (1975) Pink Floyd / Wish You Were Here (Psychedelic Rock, Art Rock) [FLAC ( ...
  • (1977) Jethro Tull / Songs from the wood (Rock, Art-Rock) [FLAC (track+ cue ...
  • (2006) БумеR (Бумер) / Второй альбом (Шансон) [FLAC (image+.cue)]
  • (1992) Paul Mauriat / Nostaljazz (Instrumental) [FLAC (image+.cue) lossless ...
  • (1989) Kaoma / Lambada (lambada / latin / ethnic) [FLAC (image+.cue), lossl ...
  • (2010) Сергей Трофимов (Трофим) / Всё не важно (Шансон) [FLAC(image+.cue), ...
  • (2010) Ассаи / Лифт (Rap) [FLAC(image+.cue), lossless]
  • (2011) Leon Bolier / Elysian Fields (Trance) [FLAC(track)lossless]
  • Slayer - 12 CD (Original Japanese Editions) (Thrash Metal) [FLAC(image+.cue ...
  • (1968) Ten Years After / Undead (Rock / Blues / Blues Rock) [Flac (tracks+. ...
  • (2011) Scar Symmetry / The Unseen Empire (Melodic Death Metal) [FLAC (image ...
  • (2002) PPK (ППК) / ReLoad. Russian Trance (Trance) [FLAC (tracks+cue), loss ...
  • (Сборник, 1976-1982) Rockets / 6 Альбомов (Electro Rock/Pop Rock/Space Rock ...
  • (Дискография, 1987-1999) Obliveon (Technical Thrash Metal) [FLAC (image+.cu ...
  • (2011 15CD Box Set Digitally Remaster) Rush - Sectors (Rock, Progressive R ...
  • (2011) Linkin Park / Iridescent (Alternative Rock) [FLAC(image+.cue), lossl ...
  • (2011) Стас Михайлов / Только ты (Шансон) [Flac(image+.cue)Lossless]
  • (2011) Сурганова & Оркестр / Увидимся скоро (Rock) [FLAC (image+.cue), loss ...
  • (2011) Metallica / Beyond Magnetic (Thrash Metal) [FLAC (image+.cue), lossl ...
  • (2012) Adrenaline Mob / Omerta (Heavy Metal/Progressive/Nu-Metal) [FLAC (im ...
  • (2012) Crippled Black Phoenix / (Mankind) The Crafty Ape (Alternative/Indie ...
  • (2010) Татьяна Буланова / Романсы (Pop) [FLAC (image+.cue), lossless]
  • (2011) Lou Reed & Metallica / Lulu (Heavy Metal, Hard Rock) [FLAC (image+.c ...
  • Информация
    Посетители, находящиеся в группе Гости, не могут оставлять комментарии к данной публикации.