вход на сайт

Имя пользователя :
Пароль :

Восстановление пароля Регистрация
(Дискография) 1981-2009 Depeche Mode (Electronic, Synthpop) [FLAC (tracks+ cue), lossless]
Рейтинг:
(голосов: 1)



[img]{THEME}/images/logopost.png[/img]



Depeche Mode - Дискография

Исполнитель: Depeche Mode
Жанр: Electronic, Other, Synthpop, Synthpop
Дата выпуска: 1981 - 2009
Страна: Великобритания
Формат: FLAC (tracks)
Битрейт: lossless

Оффициальный сайт

Альбомы:

1981 - Speak & Spell


Год Выпуска:1981
Продолжительность: 00:40:18

Треклист:
01. New Life [00:03:46]
02. I Sometimes Wish I Was Dead [00:02:18]
03. Puppets [00:03:56]
04. Boys Say Go! [00:03:08]
05. Nodisco [00:04:15]
06. Whats Your Name? [00:02:45]
07. Photographic [00:04:43]
08. Tora! Tora! Tora! [00:04:38]
09. Big Muff [00:04:24]
10. Any Second Now (voices) [00:02:35]
11. Just Cant Get Enough [00:03:44]
12. Dreaming Of Me [00:04:01]

▼Exact Audio Copy V0.99 prebeta 4 from 23. January 2008

EAC extraction logfile from 17. May 2008, 23:30

Depeche Mode / Speak & Spell

Used drive : ASUS DRW-1608P2S Adapter: 1 ID: 0

Read mode : Secure
Utilize accurate stream : Yes
Defeat audio cache : Yes
Make use of C2 pointers : No

Read offset correction : 48
Overread into Lead-In and Lead-Out : No
Fill up missing offset samples with silence : Yes
Delete leading and trailing silent blocks : No
Null samples used in CRC calculations : Yes
Used interface : Native Win32 interface for Win NT & 2000
Gap handling : Appended to previous track

Used output format : User Defined Encoder
Selected bitrate : 768 kBit/s
Quality : High
Add ID3 tag : No
Command line compressor : C:Program Files (x86)Exact Audio CopyFLACFLAC.EXE
Additional command line options : -8 -V -T "ARTIST=%a" -T "TITLE=%t" -T "ALBUM=%g" -T "DATE=%y" -T "TRACKNUMBER=%n" -T "GENRE=%m" -T "COMMENT=EAC FLAC -8" %s

TOC of the extracted CD

Track | Start | Length | Start sector | End sector
---------------------------------------------------------
1 | 0:00.00 | 3:46.59 | 0 | 17008
2 | 3:46.59 | 2:18.23 | 17009 | 27381
3 | 6:05.07 | 3:56.50 | 27382 | 45131
4 | 10:01.57 | 3:08.27 | 45132 | 59258
5 | 13:10.09 | 4:15.69 | 59259 | 78452
6 | 17:26.03 | 2:45.41 | 78453 | 90868
7 | 20:11.44 | 4:43.31 | 90869 | 112124
8 | 24:55.00 | 4:38.57 | 112125 | 133031
9 | 29:33.57 | 4:24.45 | 133032 | 152876
10 | 33:58.27 | 2:35.04 | 152877 | 164505
11 | 36:33.31 | 3:44.60 | 164506 | 181365
12 | 40:18.16 | 4:01.51 | 181366 | 199491

Track 1

Filename H:MUSICDepeche Mode Official Discography - Remastered - FLAC (tracks)1981 - Speak And Spell�1 - New Life.wav

Pre-gap length 0:00:02.00

Peak level 100.0 %
Track quality 99.9 %
Test CRC 74166E0F
Copy CRC 74166E0F
Accurately ripped (confidence 26) [829EBC75]
Copy OK

Track 2

Filename H:MUSICDepeche Mode Official Discography - Remastered - FLAC (tracks)1981 - Speak And Spell�2 - I Sometimes Wish I Was Dead.wav

Pre-gap length 0:00:04.45

Peak level 98.8 %
Track quality 100.0 %
Test CRC F3A38350
Copy CRC F3A38350
Accurately ripped (confidence 26) [63A1A35D]
Copy OK

Track 3

Filename H:MUSICDepeche Mode Official Discography - Remastered - FLAC (tracks)1981 - Speak And Spell�3 - Puppets.wav

Pre-gap length 0:00:01.49

Peak level 100.0 %
Track quality 100.0 %
Test CRC 27B98DA8
Copy CRC 27B98DA8
Accurately ripped (confidence 26) [3218F106]
Copy OK

Track 4

Filename H:MUSICDepeche Mode Official Discography - Remastered - FLAC (tracks)1981 - Speak And Spell�4 - Boys Say Go!.wav

Pre-gap length 0:00:00.50

Peak level 98.8 %
Track quality 100.0 %
Test CRC 139CC298
Copy CRC 139CC298
Accurately ripped (confidence 26) [D666496A]
Copy OK

Track 5

Filename H:MUSICDepeche Mode Official Discography - Remastered - FLAC (tracks)1981 - Speak And Spell�5 - Nodisco.wav

Pre-gap length 0:00:03.25

Peak level 98.8 %
Track quality 100.0 %
Test CRC 2532A77F
Copy CRC 2532A77F
Accurately ripped (confidence 26) [004F7E23]
Copy OK

Track 6

Filename H:MUSICDepeche Mode Official Discography - Remastered - FLAC (tracks)198
6f5e35a1d7d5320d86b04c0295e12d97138e3a7c(Дискография) 1981-2009 Depeche Mode (Electronic, Synthpop) [FLAC (tracks+ cue), lossless] (Дискография) 1981-2009 Depeche Mode (Electronic, Synthpop) [FLAC (tracks+ cue), lossless] " />

Аплоадер: Админ, дата: 17-08-2009, 01:26, торрент скачан: 359 раз

Понравилась раздача? Посмотрите эти:
  • (Дискография, 1981 - 2013) Depeche Mode (Synth-pop | New Wave) [FLAC (image ...
  • (2002) Urker / Уркер / Made In Kazakhstan (Pop, Ethno) [FLAC (image+.cue), ...
  • (2012, Сборник) VA / Вечерняя Коллекция (Звуки природы) (Relax) [FLAC (trac ...
  • (2013) Depeche Mode - Heaven (CD Maxi-Single) (Synthpop) [FLAC (image+.cue) ...
  • ( Soundtrack,1999) VA - American Beauty Original Motion Picture Soundtrack ...
  • (1989) Kaoma / Lambada (lambada / latin / ethnic) [FLAC (image+.cue), lossl ...
  • (2008) Pink / Funhouse (Pop) [FLAC (tracks) lossless]
  • (Дискография) GORILLAZ (Trip-Hop) [FLAC (tracks + .cue) lossless]
  • (1968) Ten Years After / Undead (Rock / Blues / Blues Rock) [Flac (tracks+. ...
  • (2011) Depeche Mode / Personal Jesus 2011 Club Promo (Electronic, Synthpop) ...
  • (2008) Karunesh /Enlightenment (New Age) [FLAC (image+.cue), lossless]
  • (2002) PPK (ППК) / ReLoad. Russian Trance (Trance) [FLAC (tracks+cue), loss ...
  • (2010) Ravenna / Debrief (Alt. Rock / Christian Rock / Indie) [FLAC (tracks ...
  • (1988) David Grisman Quintet feat. Svend Asmussen / Svingin With Svend (Jaz ...
  • (Дискография, 1981 - 2011) Depeche Mode (Synth-pop | New Wave) [FLAC (image ...
  • (2006) The Rasmus / Shot (Single) (Alternative Rock) [FLAC (tracks+.cue), l ...
  • (2009) Miley Cyrus / The Time of Our Lives (Pop) [FLAC (tracks+.cue), lossl ...
  • (2010) [AMATORY] / Инстинкт обречённых (Nu Metal) [FLAC (tracks), lossless] ...
  • (2011) Linkin Park / Iridescent (Alternative Rock) [FLAC(image+.cue), lossl ...
  • (2011) This Will Destroy You / Tunnel Blanket (Post Rock) [FLAC (tracks+.cu ...
  • (2004) Дельфин / Запись концерта 19.11.04 (Alternative|Experimental) [FLAC ...
  • (Дискография, 2002 - 2012) Rodrigo y Gabriela (Acoustic, Flamenco, Classica ...
  • (2009) Exivious (Ex. Cynic) / Exivious (Progressive Metal/Death Metal) [FLA ...
  • (2012) KoRn feat. Skrillex / Chaos Lives In Everything (UK Promo) (Nu-metal ...
  • (2011) Ink Stained Promises / Relations. (Metalcore, Hardcore) [FLAC (track ...
  • Информация
    Посетители, находящиеся в группе Гости, не могут оставлять комментарии к данной публикации.