вход на сайт

Имя пользователя :
Пароль :

Восстановление пароля Регистрация
(2010) Schiller / Greatest Hits (2 CD) (Electronic,Downtempo, Trance, Ambient) [FLAC (tracks+.cue), Lossless]
Рейтинг:
(голосов: 1)



[img]{THEME}/images/logopost.png[/img]



Исполнитель: Schiller
Страна:Германия
Альбом: Greatest Hits
Тип альбома: Сборник
Год выпуска: 2010
Жанр: Electronic,Downtempo, Trance, Ambient
Страна (Издатель, Каталожный номер): Россия, (Star Mark, 25887-1/2)
Аудиокодек: FLAC
Тип рипа:tracks+.cue
Битрейт: lossless
Продолжительность:02:39:21


CD1 ▼
Продолжительность: 01:19:38

Tреклист:
01. Try (feat. Nadia Ali) (04:45)
02. Let Me Love You (feat. Kim Sanders) (06:40)
03. Time For Dream (feat. Lang Lang) (03:08)
04. I Feel You (feat. Heppner) (05:30)
05. Ile Aye (feat. Stephenie Coker) (04:01)
06. I Will Follow You (feat. Henree) (04:36)
07. Dream Of You (feat. Heppner) (03:57)
08. Der Tag ... Du Bist Erwacht (feat. Jette von Roth) (04:02)
09. Denn Wer Liebt (feat. Anna Maria Muehe) (03:52)
10. Tagtraum (04:46)
11. Tired Of Being Alone (feat. Tarja Turunen) (04:04)
12. Love (feat. Mila Mar) (03:49)
13. Miles And Miles (feat. Moya Brennan) (03:55)
14. Sommernacht (04:44)
15. Morning Dew (With Mike Oldfield) (04:04)
16. Das Glockenspiel (04:18)
17. Liebesschmerz (04:08)
18. Forever (feat. Kim Sanders) (05:12)


Лог создания рипа ▼TextExact Audio Copy V1.0 beta 1 from 15. November 2010

EAC extraction logfile from 10. July 2011, 21:05

Schiller / Greatest Hits (CD1)

Used drive : PIONEER DVD-RW DVR-218L Adapter: 2 ID: 1

Read mode : Secure
Utilize accurate stream : Yes
Defeat audio cache : Yes
Make use of C2 pointers : No

Read offset correction : 6
Overread into Lead-In and Lead-Out : No
Fill up missing offset samples with silence : Yes
Delete leading and trailing silent blocks : No
Null samples used in CRC calculations : Yes
Used interface : Installed external ASPI interface
Gap handling : Appended to previous track

Used output format : User Defined Encoder
Selected bitrate : 128 kBit/s
Quality : High
Add ID3 tag : No
Command line compressor : C:Program FilesExact Audio CopyFlacflac.exe
Additional command line options : -8 -V -T "ARTIST=%a" -T "TITLE=%t" -T "ALBUM=%g" -T "DATE=%y" -T "TRACKNUMBER=%n" -T "GENRE=%m" -T "COMMENT=ripped by serginho199" %s


TOC of the extracted CD

Track | Start | Length | Start sector | End sector
---------------------------------------------------------
1 | 0:00.00 | 4:45.52 | 0 | 21426
2 | 4:45.52 | 6:40.00 | 21427 | 51426
3 | 11:25.52 | 3:08.02 | 51427 | 65528
4 | 14:33.54 | 5:30.39 | 65529 | 90317
5 | 20:04.18 | 4:01.09 | 90318 | 108401
6 | 24:05.27 | 4:36.25 | 108402 | 129126&n
c352ecf4ba1e577add4844eba25d0f13d1b013f7(2010) Schiller / Greatest Hits (2 CD) (Electronic,Downtempo, Trance, Ambient) [FLAC (tracks+.cue), Lossless] (2010) Schiller / Greatest Hits (2 CD) (Electronic,Downtempo, Trance, Ambient) [FLAC (tracks+.cue), Lossless] " />

Аплоадер: Админ, дата: 16-02-2013, 18:34, торрент скачан: 359 раз

Понравилась раздача? Посмотрите эти:
  • (2013) Prodigy & The Alchemist / Albert Einstein (Underground Hip-Hop) [FLA ...
  • (2013) A$AP Rocky | Long. Live. ASAP (Deluxe Edition) (Rap|Hip-Hop) [FLAC ( ...
  • (2002, Сборник) VA / Chill Out Edition (2xCD) (Lounge, Chillout, Downtempo, ...
  • (2012) Signum / Remixed (Trance) [FLAC (tracks+.cue), Lossless]
  • (2011) Schiller / Timeline (Electronic, Lo-Fi, Trance, Ambient, Pop) [FLAC ...
  • (2010) Tinie Tempah / Disc-Overy (Hip-Hop/ Grime) [FLAC (tracks+ .cue) loss ...
  • (2011, сборник) ATB / Greatest Hits (Trance) [FLAC (tracks+.сue), lossless] ...
  • (2011) Lil Wayne / Tha Carter IV (Rap, Hip-Hop) [FLAC (tracks+.cue), loss ...
  • (2002) PPK (ППК) / ReLoad. Russian Trance (Trance) [FLAC (tracks+cue), loss ...
  • (2010) VA / 100 Hits: Summer Reggae (Reggae) [FLAC (tracks+.cue), lossless] ...
  • (2011) B.B. King / Icon (Blues) [FLAC (tracks+.cue), lossless]
  • (2012) Marconi Union / Different Colours (Post Rock, Downtempo, Ambient) [F ...
  • (2012, Сборник) VA / The Best Of Lounge 4 (Lounge, Chillout, Jazzy, Downtem ...
  • (2011) Lil Wayne / Tha Carter IV (Target Deluxe Edition) (Hip-Hop) [FLAC (t ...
  • (2012) Usher / Looking 4 Myself (Deluxe Version) (R&B, Soul) [FLAC (tracks+ ...
  • (2012) Netsky / 2 (Drum & Bass, Dubstep) [FLAC (tracks+.cue), lossless]
  • (2011) Gandharva / Lord of the Universe (New Age, Classical, Erhu) [FLAC (t ...
  • (2009) Mystica / Second Dive (Trance, Ambient & Downtempo, Chill Out) [FLAC ...
  • (2012) KoRn feat. Skrillex / Chaos Lives In Everything (UK Promo) (Nu-metal ...
  • (2012) Dash Berlin / #musicislife (Trance) [FLAC (tracks+.сue), lossless]
  • Информация
    Посетители, находящиеся в группе Гости, не могут оставлять комментарии к данной публикации.