вход на сайт

Имя пользователя :
Пароль :

Восстановление пароля Регистрация
(2013) Depeche Mode - Heaven (CD Maxi-Single) (Synthpop) [FLAC (image+.cue), lossless]
Рейтинг:
(голосов: 1)



[img]{THEME}/images/logopost.png[/img]




Исполнитель: Depeche Mode
Альбом: Heaven
Страна-производитель диска: EU
Тип альбома: Maxi-Single
Год выпуска: 2013
Жанр: Synthpop
Издатель (лейбл): Sony Music / Venusnote Ltd.
Номер по каталогу: 88765475372
Аудиокодек: FLAC (*.flac)
Тип рипа: image+.cue
Битрейт: lossless
Режим рипа: test & copy
Продолжительность: 00:26:46
Источник (релизер): rutracker (sewerok)
Наличие сканов в содержимом раздачи: да (96 dpi, *jpg)

Описание : Heaven — первый сингл с тринадцатого студийного альбома Delta Machine британской группы Depeche Mode. Является 50-м синглом в их дискографии.

Tреклист:
01. Heaven (Album Version) - (4:05)
02. Heaven (Owlle Remix) - (4:48)
03. Heaven (Steps To Heaven Remix) - (6:11)
04. Heaven (Blawan Remix) - (5:44)
05. Heaven (Matthew Dear Vs. Audion Vocal Mix) - (5:59)

Лог создания рипа ▼TextExact Audio Copy V1.0 beta 3 from 29. August 2011

EAC extraction logfile from 1. February 2013, 19:46

Depeche Mode / Heaven (CD Maxi-Single)

Used drive : SlimtypeBD E DS4E1S Adapter: 1 ID: 0

Read mode : Secure
Utilize accurate stream : Yes
Defeat audio cache : Yes
Make use of C2 pointers : No

Read offset correction : 6
Overread into Lead-In and Lead-Out : No
Fill up missing offset samples with silence : Yes
Delete leading and trailing silent blocks : No
Null samples used in CRC calculations : Yes
Used interface : Native Win32 interface for Win NT & 2000

Used output format : User Defined Encoder
Selected bitrate : 896 kBit/s
Quality : High
Add ID3 tag : No
Command line compressor : C:Program Files (x86)Exact Audio CopyFLACFLAC.EXE
Additional command line options : -8 -V -T "Date=%year%" -T "Genre=%genre%" -T "COMMENT=ripped by sewerok®" %source%


TOC of the extracted CD

Track | Start | Length | Start sector | End sector
---------------------------------------------------------
1 | 0:00.00 | 4:05.23 | 0 | 18397
2 | 4:05.23 | 4:47.60 | 18398 | 39982
3 | 8:53.08 | 6:10.56 | 39983 | 67788
4 | 15:03.64 | 5:43.40 | 67789 | 93553
5 | 20:47.29 | 5:59.12 | 93554 | 120490


Range status and errors

Selected range

Filename E:Depeche Mode - Heaven [2013] (CD Maxi-Single)Depeche Mode - Heaven (CD Maxi-Single).wav

Peak level 98.8 %
Extraction speed 3.6 X
Range quality 99.9 %
Test CRC DFF3602D
Copy CRC DFF3602D
Copy OK

No errors occurred


AccurateRip summary

Track 1 not present in database
Track 2 not present in database
Track 3 not present in database
Track 4&nb
cba25ba2eac8c7b483497d954c5cc602e686c15e(2013) Depeche Mode - Heaven (CD Maxi-Single) (Synthpop) [FLAC (image+.cue), lossless] (2013) Depeche Mode - Heaven (CD Maxi-Single) (Synthpop) [FLAC (image+.cue), lossless] " />

Аплоадер: Админ, дата: 16-02-2013, 15:42, торрент скачан: 359 раз

Понравилась раздача? Посмотрите эти:
  • (2013) Buddy Guy / Rhythm & Blues (2CD) (Blues) [FLAC (image+.cue), Lossles ...
  • (2013) Linkin Park / Recharged (Electronic Rock / Electro House) [FLAC (ima ...
  • (2013) Paul McCartney / New (Deluxe Edition) (Rock) [FLAC (image,+.cue), lo ...
  • (2013) Girls Generation (SNSD) - Galaxy Supernova / Galaxy Supernova (KPop) ...
  • (2013) Linkin Park & Steve Aoki / A Light That Never Comes (Electronic Rock ...
  • (2013) Linkin Park / Castle Of Glass (Alternative) [FLAC (image+.cue), Loss ...
  • (2012) Matt Bianco / Hideaway (Japan CD) (Smooth Jazz, Fusion, Latin-Pop) [ ...
  • Depeche Mode / Heaven [2013, Synthpop, HDTV 1080i]
  • (Дискография) 1981-2009 Depeche Mode (Electronic, Synthpop) [FLAC (tracks+ ...
  • (1989) Kaoma / Lambada (lambada / latin / ethnic) [FLAC (image+.cue), lossl ...
  • (2011) Depeche Mode / Personal Jesus 2011 Club Promo (Electronic, Synthpop) ...
  • (2011) Mylene Farmer/ Bleu Noir (CDS + CDM) (Pop) [APE (image+.cue) lossles ...
  • (2002) PPK (ППК) / ReLoad. Russian Trance (Trance) [FLAC (tracks+cue), loss ...
  • (2012) Linkin Park / Burn It Down (Alternative Rock) (Single) [FLAC (image+ ...
  • (2012) George Michael / White Light (Pop, Electronic) [FLAC (image+.cue), l ...
  • (2006) The Rasmus / Shot (Single) (Alternative Rock) [FLAC (tracks+.cue), l ...
  • (2012) Madonna / Superstar (Pop) [FLAC (image+.cue), lossless]
  • (2011) Linkin Park / Iridescent (Alternative Rock) [FLAC(image+.cue), lossl ...
  • (2011) Stargazery / Eye On The Sky (Heavy Metal) [FLAC (image+.cue), lossle ...
  • (2011) Rammstein / Mein Land (Neue Deutsche Harte, Industrial, Tanz-Metal) ...
  • (2011) Volumes / Via (Progressive Metalcore/Math Metal) [FLAC (image+.cue), ...
  • (2012) Fox / 2012 (Melodic Hard Rock) [FLAC (image +.cue), lossless]
  • (2012) Game Over / For Humanity (Thrash Metal) [FLAC (image+.cue), lossless ...
  • (2010) Punish My Heaven / First Punishment (Melodic Death Metal, Metalcore) ...
  • (2011) Ink Stained Promises / Relations. (Metalcore, Hardcore) [FLAC (track ...
  • Информация
    Посетители, находящиеся в группе Гости, не могут оставлять комментарии к данной публикации.