вход на сайт

Имя пользователя :
Пароль :

Восстановление пароля Регистрация
(2011) Schiller / Timeline (Electronic, Lo-Fi, Trance, Ambient, Pop) [FLAC (Tracks+.cue), Lossless]
Рейтинг:
(голосов: 1)



[img]{THEME}/images/logopost.png[/img]



Исполнитель: Schiller
Страна:Германия
Альбом: Timeline (The Very Best Of 1998-2011)
Тип альбома: Сборник
Год выпуска: 2011
Жанр: Electronic, Lo-Fi, Trance, Ambient, Pop
Страна (Издатель, Каталожный номер): Польша (Magic Records, 278 741 8)
Аудиокодек: FLAC
Тип рипа: tracks +.cue
Битрейт: lossless
Продолжительность: 01:15:38



Tреклист:
01.Nightflight [05:47]
02.I Feel You (feat. Heppner) [03:47]
03.A Beautiful Day [03:44]
04.Das Glockenspiel[03:47]
05.Let Me Love You (feat. Kim Sanders)[03:32]
06.Sehnsucht (feat. Xavier Naidoo)[03:59]
07.Time For Dreams[03:10]
08.Miles And Miles (feat. Moya Brennan)[04:36]
09.Morning Dew (feat. Mike Oldfield)[04:01]
10.Breathe (feat. September)[04:13]
11.Azure[05:17]
12.Schiller[05:53]
13.You (feat. Colbie Caillat)[04:13]
14.Dream Of You (feat. Heppner)[03:58]
15.Try (feat. Nadia Ali)[03:21]
16.Ruhe[03:39]
17.Summernight[04:44]
18.Always You (feat. Anggun)[03:48]

Лог создания рипа ▼TextExact Audio Copy V1.0 beta 3 from 29. August 2011

Отчёт EAC об извлечении, выполненном 15. февраля 2013, 3:13

Schiller / Timeline

Дисковод: Optiarc DVD RW AD-5240S Adapter: 3 ID: 1

Режим чтения : Достоверность
Использование точного потока : Да
Отключение кэша аудио : Да
Использование указателей C2 : Нет

Коррекция смещения при чтении : 48
Способность читать области Lead-in и Lead-out : Нет
Заполнение пропущенных сэмплов тишиной : Да
Удаление блоков с тишиной в начале и конце : Нет
При вычислениях CRC использовались нулевые сэмплы : Да
Интерфейс : Встроенный Win32-интерфейс для Win NT/2000
Обработка зазоров : Добавлено к предыдущему треку

Выходной формат : Пользовательский кодировщик
Выбранный битрейт : 896 kBit/s
Качество : Высокий
Добавление ID3-тега : Нет
Утилита сжатия : C:Program FilesExact Audio CopyFlacflac.exe
Дополнительные параметры : -V -8 -T "Date=%year%" -T "Genre=%genre%" %source%


TOC извлечённого CD

Трек | Старт | Длительность | Начальный сектор | Конечный сектор
---------------------------------------------------------------------
1 | 0:00.00 | 5:47.02 | 0 | 26026
2 | 5:47.02 | 3:47.57 | 26027 | 43108
3 | 9:34.59 | 3:44.39 | 43109 | 59947
4 | 13:19.23 | 3:47.34 | 59948 | 77006
5 | 17:06.57 | 3:32.14 | 77007 | 92920
6 | 20:38.71 | 3:59.31 | 92921 |
31944faa35bd20eab3206053e715b0dabbcee9f6(2011) Schiller / Timeline (Electronic, Lo-Fi, Trance, Ambient, Pop) [FLAC (Tracks+.cue), Lossless] (2011) Schiller / Timeline (Electronic, Lo-Fi, Trance, Ambient, Pop) [FLAC (Tracks+.cue), Lossless] " />

Аплоадер: Админ, дата: 15-02-2013, 12:06, торрент скачан: 359 раз

Понравилась раздача? Посмотрите эти:
  • (2012) Sting / Fifteen Healing Bites (Pop Rock)(Chinese Dragon) [FLAC (trac ...
  • (2013) Смоки Мо / Младший (Rap, Hip-Hop) [FLAC (Tracks+.Cue), Lossless]
  • (2013) Маклай и Ганза / Статус-Кво (Rap, Hip-Hop) [FLAC (Tracks+.Cue), Loss ...
  • (2013) Lone / Спутник (Rap, Hip-Hop) [FLAC (Tracks+.Cue), Lossless]
  • (2013) Стриж / Игристое (Rap, Hip-Hop) [FLAC (Tracks+.Cue), Lossless]
  • (2013) Баста / Баста 4 (Rap, Hip-Hop) [FLAC (Tracks+.Cue), Lossless]
  • (2013) Loc-Dog & Tony VA / Все знают всё (Rap, Hip-Hop) [FLAC (Tracks+.Cue ...
  • (1989) Fausto Papetti / Magic Sax [Vol. 2] (Instrumental) [FLAC (tracks+.cu ...
  • (2012) Рем Дигга / Черника (Rap) [FLAC (tracks+.cue), lossless]
  • (2012) Три Кита (Зануда, Gipsy King, Тато) / Три Кита (Rap) [FLAC (tracks+. ...
  • (2010) Schiller / Breathless (Electronic) [FLAC (image+.cue), lossless]
  • (2010) Schiller / Greatest Hits (2 CD) (Electronic,Downtempo, Trance, Ambi ...
  • (2010) Krec / Осколки (Rap) [FLAC (tracks+.cue), lossless]
  • (2011) Slim (Centr) / Отличай Людей (Rap) [FLAC (tracks+.cue)lossless]
  • (2011) CENTR и Легенды Про... / Легенды Про...CENTR (Rap) [FLAC (tracks+.cu ...
  • (2011) ГРОТ / О Пути По Встречной (Rap) [FLAC (tracks+.cue), lossless]
  • (2011, Сборник) VA / The Worlds Greatest Ballads (3CD) (Pop) [FLAC (tracks+ ...
  • (2012) Guf / Сам И ... (Rap) [FLAC (tracks+.cue), lossless]
  • (2012) Триада / Мои глаза открыты (Rap) [FLAC (tracks+.cue), lossless]
  • (2012) KREC / Молча проще (Rap) [FLAC (tracks+.cue), lossless]
  • (2012) Птаха / Старые тайны (Rap) [FLAC (tracks+.cue), lossless]
  • (2011) Капа / Азиат (Рэп) [FLAC (tracks + .cue)lossless]
  • (2011) Schiller / Timeline (The Very Best Of 1998-2011) (Ambient, Lo-Fi, Tr ...
  • (2011) Ассаи / ОМ (Rap) [FLAC (tracks+.cue), lossless]
  • (2012) Словетский / Мозайка (Rap) [FLAC (tracks+.cue), lossless]
  • Информация
    Посетители, находящиеся в группе Гости, не могут оставлять комментарии к данной публикации.