вход на сайт

Имя пользователя :
Пароль :

Восстановление пароля Регистрация
(Дискография, 2008 - 2013) Empire Of The Sun (Synthpop, Electronic) [FLAC (image+.cue), lossless]
Рейтинг:
(голосов: 1)



[img]{THEME}/images/logopost.png[/img]




Studio Albums 2008 - 2013

Исполнитель: Empire Of The Sun
Страна: Australia
Издатель (лейбл):EMI Music Australia Pty Ltd., Virgin Records, Capitol Music, Universal Music Company
Жанр: Synthpop, Electronic
Аудиокодек: FLAC (*.flac)
Тип рипа: image+.cue
Битрейт : lossless
Продолжительность: 01:26:46
Источник (релизер):rutracker (bvstudio)
Наличие сканов в содержимом раздачи: да (600 dpi, *.png)

Об исполнителе:
Empire Of The Sun —австралийская электропоп-группа, созданная в 2007-м году. В настоящее время группа является дуэтом из Люка Стила (англ. Luke Steele) и Ника Литлмора (англ. Nick Littlemore), бывших участников «The Sleepy Jackson» и «Pnau», соответственно. Название коллектива «Империя солнца» было взято из одноимённого автобиографического романа Джеймса Балларда.

Студийные альбомы:
2008 - Walking On A Dream (1st Press Germany | 235 40323) ▼Продолжительность: 00:43:46

01. Standing On The Shore (4:25)
02. Walking On A Dream (3:18)
03. Half Mast (3:54)
04. We Are The People (4:27)
05. Delta Bay (3:14)
06. Country (5:04)
07. The World (4:37)
08. Swordfish Hotkiss Night (3:56)
09. Tiger By My Side (5:48)
10. Without You (5:00)Лог создания рипа ▼TextExact Audio Copy V1.0 beta 3 from 29. August 2011

EAC extraction logfile from 2. July 2013, 7:07

Empire Of The Sun / Walking On A Dream

Used drive : PIONEER DVD-RW DVR-112D Adapter: 2 ID: 1

Read mode : Secure
Utilize accurate stream : Yes
Defeat audio cache : Yes
Make use of C2 pointers : No

Read offset correction : 48
Overread into Lead-In and Lead-Out : No
Fill up missing offset samples with silence : Yes
Delete leading and trailing silent blocks : No
Null samples used in CRC calculations : Yes
Used interface : Installed external ASPI interface

Used output format : User Defined Encoder
Selected bitrate : 1024 kBit/s
Quality : High
Add ID3 tag : No
Command line compressor : C:Program Files (x86)Exact Audio CopyFlacflac.exe
Additional command line options : -8 -V -T "Date=%year%" -T "Genre=%genre%" -T "COMMENT=ripped by bvstudio®" %source%


TOC of the extracted CD

Track | Start | Length | Start sector | End sector
---------------------------------------------------------
1 | 0:00.00 | 4:25.21 | 0 | 19895
2 | 4:25.21 | 3:18.33 | 19896 | 34778
3 | 7:43.54 | 3:54.27 | 34779 | 52355
4 | 11:38.06 | 4:27.28 | 52356 | 72408
5 | 16:05.34 | 3:14.23 | 72409 | 86981
6 | 19:19.57 | 5:04.37 | 86982 | 109818
7 | 24:24.19 | 4:37.18 | 109819 |
fb03e817152e7f19fdaa792b07957597b6b764ea(Дискография, 2008 - 2013) Empire Of The Sun (Synthpop, Electronic) [FLAC (image+.cue), lossless] (Дискография, 2008 - 2013) Empire Of The Sun (Synthpop, Electronic) [FLAC (image+.cue), lossless] " />

Аплоадер: Админ, дата: 3-07-2013, 16:07, торрент скачан: 359 раз

Понравилась раздача? Посмотрите эти:
  • (1996) George Michael / Older (1st Press Japan) (Electronic, Pop/Rock) [FLA ...
  • (2013) Buddy Guy / Rhythm & Blues (2CD) (Blues) [FLAC (image+.cue), Lossles ...
  • (2013) The Hamburg Blues Band / Friends For A LIVEtime (Blues Rock, Rock) [ ...
  • (2013) Leslie West / Still Climbing (Rock, Hard Rock, Blues Rock) [FLAC (im ...
  • (2013) Linkin Park / Recharged (Electronic Rock / Electro House) [FLAC (ima ...
  • (2013) Paul McCartney / New (Deluxe Edition) (Rock) [FLAC (image,+.cue), lo ...
  • (2013) Elton John / The Diving Board (Rock, Pop Rock) [FLAC (image+.cue), L ...
  • (2013) Govt Mule / Shout! (2CD) (Blues Rock) [FLAC (image+.cue), Lossless]
  • (2013) Linkin Park & Steve Aoki / A Light That Never Comes (Electronic Rock ...
  • (Дискография, 2000 - 2012) Pnau (Synthpop, Electronic) [FLAC (image+.cue, ...
  • (2012) Lazlo / Lazlo (Electro Swing, Nu Jazz, Electronic) [FLAC (tracks+.cu ...
  • (2013) Depeche Mode - Heaven (CD Maxi-Single) (Synthpop) [FLAC (image+.cue) ...
  • (Дискография) Empire Of the Sun {Electronic,Synthpop, New Wave} [MP3, 320 / ...
  • (2011) Depeche Mode / Personal Jesus 2011 Club Promo (Electronic, Synthpop) ...
  • (Дискография, 2002 - 2011) Sophie Ellis-Bextor (Pop/Dance) [FLAC (image+.cu ...
  • (Дискография, 1988-2011) Kingdom Come (Hard&Heavy,Glam Metal) [FLAC (image+ ...
  • (2012) Morten Harket / Out Of My Hands (Pop) [FLAC (image+.cue), lossless]
  • (2012) George Michael / White Light (Pop, Electronic) [FLAC (image+.cue), l ...
  • (2009) Mystica / Second Dive (Trance, Ambient & Downtempo, Chill Out) [FLAC ...
  • (2011) The Browning / Burn This World (Deathcore/Electronic) [FLAC (tracks+ ...
  • Информация
    Посетители, находящиеся в группе Гости, не могут оставлять комментарии к данной публикации.