вход на сайт

Имя пользователя :
Пароль :

Восстановление пароля Регистрация
(2012) Schiller / Sonne (3 CD) (Limited Ultra Deluxe Edition) (Ambient/Chillout) [FLAC (tracks+.cue), lossless]
Рейтинг:
(голосов: 1)



[img]{THEME}/images/logopost.png[/img]



Исполнитель: Schiller
Страна: Германия
Альбом: Sonne [Limited Ultra Deluxe Edition]
Тип альбома: Студийный
Год выпуска: 2012
Жанр: Ambient/Chillout
Год первоначального издания альбома: 2012
Аудиокодек: FLAC (*.flac)
Тип рипа: tracks+.cue
Битрейт: lossless
Продолжительность: 02:58:45

CD1 ▼
Продолжительность: 01:11:50
Tреклист ▼
01. Willkommen [01:14]
02. Solaris [03:55]
03. Kon-Tiki [04:25]
04. Revelation [05:37]
05. Sonne (Mit Unheilig) [04:30]
06. Mitternacht [04:24]
07. Hallucinating Beauty (Mit Kate Havnevik) [07:10]
08. Morgenrot [04:59]
09. Alive (Mit Adam Young) [04:41]
10. Berlin - Moskau [04:39]
11. Lichtermeer [04:42]
12. Soleil De Nuit (Mit Pierre Maubouche) [04:14]
13. Reach Out (Mit Meredith Call) [05:05]
14. Das Dritte Auge [04:58]
15. Velvet Aeroplane (Mit Kate Havnevik) [07:23]

Лог создания рипа ▼
Text
Exact Audio Copy V1.0 beta 3 from 29. August 2011

EAC extraction logfile from 13. October 2012, 19:29

Schiller / Sonne

Used drive : HL-DT-STBDDVDRW GGC-H20L Adapter: 2 ID: 0

Read mode : Secure
Utilize accurate stream : Yes
Defeat audio cache : Yes
Make use of C2 pointers : No

Read offset correction : 667
Overread into Lead-In and Lead-Out : No
Fill up missing offset samples with silence : Yes
Delete leading and trailing silent blocks : No
Null samples used in CRC calculations : Yes
Used interface : Native Win32 interface for Win NT & 2000
Gap handling : Appended to previous track

Used output format : User Defined Encoder
Selected bitrate : 896 kBit/s
Quality : High
Add ID3 tag : No
Command line compressor : C:Program Files (x86)Exact Audio CopyFlacflac.exe
Additional command line options : -V -8 -T "Genre=%genre%" -T "Artist=%artist%" -T "Title=%title%" -T "Album=%albumtitle%" -T "Date=%year%" -T "Tracknumber=%tracknr%" -T "Comment=%comment%" %source%


TOC of the extracted CD

Track | Start | Length | Start sector | End sector
---------------------------------------------------------
1 | 0:00.00 | 1:14.16 | 0 | 5565
2 | 1:14.16 | 3:55.12 | 5566 | 23202
3 | 5:09.28 | 4:24.54 | 23203 | 43056
4 | 9:34.07 | 5:36.53 | 43057 | 68309
5 | 15:10.60 | 4:30.37 | 68310 | 88596
6 | 19:41.22 | 4:24.08 | 88597 | 108404
7 | 24:05.30 | 7:09.74 | 108405 | 140653
8 | 31:15.29 | 4:58.72 | 140
c0bc003473466d168c4807c826314e0f1dff1fb8(2012) Schiller / Sonne (3 CD) (Limited Ultra Deluxe Edition) (Ambient/Chillout) [FLAC (tracks+.cue), lossless] (2012) Schiller / Sonne (3 CD) (Limited Ultra Deluxe Edition) (Ambient/Chillout) [FLAC (tracks+.cue), lossless] " />

Аплоадер: Админ, дата: 28-10-2012, 13:26, торрент скачан: 359 раз

Понравилась раздача? Посмотрите эти:
  • (2013) Paul McCartney / New (Deluxe Edition) (Rock) [FLAC (image,+.cue), lo ...
  • (2013) Hans Zimmer / Человек из стали / Man Of Steel [Deluxe Edition] (2 CD ...
  • (2013) A$AP Rocky | Long. Live. ASAP (Deluxe Edition) (Rap|Hip-Hop) [FLAC ( ...
  • (2012, Сборник) VA / Ambient Lounge 15 (Limited Edition) perfect music for ...
  • (2013) Bon Jovi / What About Now (Deluxe Edition) (Hard Rock) [FLAC (tracks ...
  • (2010) Zaz / Zaz (Nu jazz, Chanson, Soul) [FLAC (tracks+.cue), lossless]
  • (2011) Daughtry / Break the Spell (Deluxe Edition) (Alt. Rock / Modern Rock ...
  • (2011) B.B. King / Icon (Blues) [FLAC (tracks+.cue), lossless]
  • (2012) Amy MacDonald / Life In A Beautiful Light (Deluxe Edition) (Acoustic ...
  • (2012) Marconi Union / Different Colours (Post Rock, Downtempo, Ambient) [F ...
  • (2012) Tomandandy / Resident Evil: Retribution (Score, Soundtrack)[FLAC (tr ...
  • (2012) Ke$ha (Kesha) - Warrior (Deluxe Edition) (Pop, Dance) [FLAC (tracks ...
  • (2011) Lil Wayne / Tha Carter IV (Target Deluxe Edition) (Hip-Hop) [FLAC (t ...
  • (2011) Chris Brown / F.A.M.E. (Deluxe Edition) (R&B) [FLAC (tracks+.cue), l ...
  • (2012) Usher / Looking 4 Myself (Deluxe Version) (R&B, Soul) [FLAC (tracks+ ...
  • (2011) Дельфин / Существо (Alternative|Experimental) [FLAC (tracks+.cue), l ...
  • (2012) Buckethead / Electric Sea (Experimental/Acoustic/Ambient/Rock) [FLAC ...
  • (2012) Les Friction / Les Friction (Alt. Rock/Neo-Classical/Orchestral) [FL ...
  • (2011) SeeS / The enD (Progressive/Math Metal) [FLAC (tracks+.cue), lossles ...
  • (2012) Our Lady Peace / Curve (Alternative/Rock) [FLAC (tracks+.cue), lossl ...
  • (2012) Soulfly / Enslaved [Deluxe Edition] (Groove Metal/Thrash Metal) [FLA ...
  • (2012) Nine Lashes / World We View (Alt.Rock/Alt.Metal/Christian) [FLAC (tr ...
  • (2011) Phinehas / Thegodmachine (Metalcore) [FLAC (tracks+.cue), lossless]
  • (2012) Dash Berlin / #musicislife (Trance) [FLAC (tracks+.сue), lossless]
  • (2012) For Today / Immortal (Metalcore, Hardcore, Christian) [FLAC (tracks+ ...
  • Информация
    Посетители, находящиеся в группе Гости, не могут оставлять комментарии к данной публикации.