вход на сайт

Имя пользователя :
Пароль :

Восстановление пароля Регистрация
(2010) Dutch / A Bright Cold Day (Trip-Hop) [FLAC (image+.cue), lossless]
Рейтинг:
(голосов: 1)



[img]{THEME}/images/logopost.png[/img]



Исполнитель: Dutch (Stoupe the Enemy of Mankind & Liz Fullerton)
Альбом: A Bright Cold Day
Страна: USA
Тип альбома: Студийный
Год выпуска: 2010
Издатель (лейбл): Enemy Soil
Номер по каталогу: ES-1001
Жанр: Trip-Hop
Формат: FLAC (image+.cue)
Битрейт: lossless
Продолжительность: 00:42:34
Источник (релизер): PackFM

Tреклист:
01. Intro (0:37)
02. Just Before The Rain (3:59)
03. Pearls (4:46)
04. 2000 Leagues Under My Keyboard (4:27)
05. Woman Like The Wind (3:37)
06. Charlotte (2:46)
07. California Cloaked In Wool (4:03)
08. Tristess (3:53)
09. Cerulean (4:28)
10. Beyond All Walking (4:18)
11. Meaning Of Unequipped (3:32)
12. Shoe (Outro) (2:05)

Лог создания рипа ▼TextExact Audio Copy V0.99 prebeta 5 from 4. May 2009

EAC extraction logfile from 23. September 2010, 16:45

Dutch / A Bright Cold Day

Used drive : ASUS DRW-1814BLT Adapter: 2 ID: 1

Read mode : Secure
Utilize accurate stream : Yes
Defeat audio cache : Yes
Make use of C2 pointers : No

Read offset correction : 6
Overread into Lead-In and Lead-Out : No
Fill up missing offset samples with silence : Yes
Delete leading and trailing silent blocks : No
Null samples used in CRC calculations : Yes
Used interface : Native Win32 interface for Win NT & 2000

Used output format : User Defined Encoder
Selected bitrate : 768 kBit/s
Quality : High
Add ID3 tag : No
Command line compressor : C:Program FilesExact Audio CopyFLACFLAC.EXE
Additional command line options : -8 -V %s


TOC of the extracted CD

Track | Start | Length | Start sector | End sector
---------------------------------------------------------
1 | 0:00.00 | 0:37.28 | 0 | 2802
2 | 0:37.28 | 3:59.37 | 2803 | 20764
3 | 4:36.65 | 4:46.00 | 20765 | 42214
4 | 9:22.65 | 4:27.35 | 42215 | 62274
5 | 13:50.25 | 3:37.33 | 62275 | 78582
6 | 17:27.58 | 2:45.40 | 78583 | 90997
7 | 20:13.23 | 4:03.12 | 90998 | 109234
8 | 24:16.35 | 3:52.57 | 109235 | 126691
9 | 28:09.17 | 4:28.03 | 126692 | 146794
10 | 32:37.20 | 4:17.68 | 146795 | 166137
11 | 36:55.13 | 3:32.00 | 166138 | 182037
12 | 40:27.13 | 2:05.35 | 182038 &nbs
9356c3f1e7513ef30c011c56df9acc141586b0c6(2010) Dutch / A Bright Cold Day (Trip-Hop) [FLAC (image+.cue), lossless] (2010) Dutch / A Bright Cold Day (Trip-Hop) [FLAC (image+.cue), lossless] " />

Аплоадер: Админ, дата: 16-04-2012, 17:51, торрент скачан: 359 раз

Понравилась раздача? Посмотрите эти:
  • (2002) Urker / Уркер / Made In Kazakhstan (Pop, Ethno) [FLAC (image+.cue), ...
  • (2007) GORILLAZ / D-Sides [Japan Edition] (Hip-Hop) [FLAC (image+cue), loss ...
  • (2006) Аквариум / Беспечный русский бродяга (Rock) [FLAC (image+.cue) lossl ...
  • (2010)Scorpions/Sting In The Tail [FLAC (tracks+cue), lossless]
  • (1989) Kaoma / Lambada (lambada / latin / ethnic) [FLAC (image+.cue), lossl ...
  • (2010) ПИKНИК / Театр Абсурда (Art-Rock) [FLAC (tracks+.cue), lossless]
  • (2008) Pink / Funhouse (Pop) [FLAC (tracks) lossless]
  • (Дискография) GORILLAZ (Trip-Hop) [FLAC (tracks + .cue) lossless]
  • (2010) Сергей Трофимов (Трофим) / Всё не важно (Шансон) [FLAC(image+.cue), ...
  • (2010) Ассаи / Лифт (Rap) [FLAC(image+.cue), lossless]
  • (2010) David Wahler / A Star Danced (New Age, Ambient, Instrumental) [FLAC ...
  • (2010) Eminem / Recovery (Rap / Hip-Hop) [FLAC (tracks+.cue) lossless]
  • (2010) A-HA / 25 (2 CD) (Pop) [FLAC (image + .cue)]
  • (2010) Michael Jackson - Michael (Pop) [FLAC, (tracks+.cue), lossless]
  • (2011) The Prodigy / Worlds On Fire (Big Beat, Rave) [FLAC (image+.cue), lo ...
  • (2012) Руставели / Начало света (Rap) [FLAC (image+.cue), lossless]
  • (2011) Sam Levine / Smooth Sax Romance (Smooth Jazz) [FLAC (image+.cue), lo ...
  • (2010) Ne-Yo / Libra Scale (Japanese Edition) (RnB) [FLAC (tracks+.cue) los ...
  • (2010) Rihanna / Loud (R&B) [FLAC (tracks+.cue), lossless]
  • (2003) DJ Zinc / Faster (DnB, Breaks) [ FLAC (tracks+.cue), lossless]
  • (1976) The Eagles / Hotel California [Japan Remastered] (Country Rock) [FLA ...
  • (2010) Morcheeba / Blood Like Lemonade ( Electronic, Downtempo, Pop, Trip-h ...
  • (2009) Чиж & Co / Лучшее. Золотая коллекция (Rock) [FLAC (image+.cue), loss ...
  • (2011) Слот / F5 (Alternative Metal) [FLAC (image+.cue)lossless]
  • (2011) Слот / Break The Code (Alternative Metal) [FLAC (image+.cue)lossless ...
  • Информация
    Посетители, находящиеся в группе Гости, не могут оставлять комментарии к данной публикации.