вход на сайт

Имя пользователя :
Пароль :

Восстановление пароля Регистрация
(Сборник, 2010-2011) Hurts / Happiness (3 издания) + Singles (7 CD) (Synthpop, New Wave) [APE (image+.сue), lossless]
Рейтинг:
(голосов: 1)



[img]{THEME}/images/logopost.png[/img]




Happiness (3 издания) + Singles (7 CD)
Исполнитель:Hurts
Страна: UK
Жанр:Synthpop, New Wave
Формат: APE (image+.сue)
Битрейт: lossless
Log-файл: Присутствует
Наличие сканов в содержимом раздачи: да(JPEG, 300dpi)
Продолжительность: 04:43:22

Описание: Hurts— английский музыкальный коллектив из Манчестера (Великобритания), исполняющий композиции в жанре электропоп 1980-х годов. Сами музыканты называют свой стиль «Noir’n’b and doom pop». New Musical Express назвал их «Officially the. next. big. thing».
Стилистически песни выдержаны в холодных тонах, они просто источают меланхолию. Hurts в качестве ориентира использует совершенный синтипоп 80-ых годов, беря за образец такие группы, как: Soft Cell, Tears For Fears, Heaven 17 и ранних Pet Shop Boys. Мелодии печальные, волнующие и проникновенные, а тексты настраивают на мелодраматический лад.


Wikipedia|YouTube|Facebook|Official page

Студийные:

2010 - Happiness (Japan) (APE | image+.сue) ▼
Продолжительность: 01:12:28

Треклист:

01.Silver Lining(Hurts) - 5:00
02.Wonderful Life(Hurts) - 4:16
03.Blood, Tears & Gold(Hurts) - 4:20
04.Sunday(Hurts) - 3:55
05.Stay(Hurts) - 3:57
06.Illuminated(Hurts) - 3:21
07.Evelyn(Hurts) - 3:57
08.Better Than Love(Hurts) - 3:35
09.Devotion(Hurts) - 4:15
10.Unspoken(Hurts) - 4:49
11.The Water(Hurts) - 3:47
12.Happiness(Hurts) - 3:29
13.Affair(Hurts) - 6:29
14.Mother Nature(Hurts) - 2:53
15.Better Than Love (Jamaica Remix)(Hurts) - 4:23
16.Wonderful Life (Arthur Baker Remix, Kitsune Version) / Verona(Hurts) - 10:04
Лог создания рипа ▼TextExact Audio Copy V1.0 beta 3 from 29. August 2011

EAC extraction logfile from 2. December 2011, 13:41

Hurts / Happiness (Japan)

Used drive : OPTIARC DVD RW AD-5970H Adapter: 2 ID: 0

Read mode : Secure
Utilize accurate stream : Yes
Defeat audio cache : Yes
Make use of C2 pointers : No

Read offset correction : 48
Overread into Lead-In and Lead-Out : No
Fill up missing offset samples with silence : Yes
Delete leading and trailing silent blocks : No
Null samples used in CRC calculations : Yes
Used interface : Native Win32 interface for Win NT & 2000

Used output format : Internal WAV Routines
Sample format : 44.100 Hz; 16 Bit; Stereo


TOC of the extracted CD

Track | Start | Length | Start sector | End sector
---------------------------------------------------------
1 | 0:00.00 | 4:59.72 | 0 | 22496
2 | 4:59.72 | 4:16.10 | 22497 | 41706
3 | 9:16.07 | 4:20.08 | 41707 | 61214
4 | 13:36.15 | 3:54.48 | 61215 | 78812
5 | 17:30.63 | 3:57.15 | 78813 | 96602
&nb
88b3f01ca87e6e00ecb3e1d15fc1c02f3ca509e8(Сборник, 2010-2011) Hurts / Happiness (3 издания) + Singles (7 CD) (Synthpop, New Wave) [APE (image+.сue), lossless] (Сборник, 2010-2011) Hurts / Happiness (3 издания) + Singles (7 CD) (Synthpop, New Wave) [APE (image+.сue), lossless] " />

Аплоадер: Админ, дата: 16-04-2012, 14:42, торрент скачан: 359 раз

Понравилась раздача? Посмотрите эти:
Информация
Посетители, находящиеся в группе Гости, не могут оставлять комментарии к данной публикации.