вход на сайт

Имя пользователя :
Пароль :

Восстановление пароля Регистрация
(2012, 3 CD Box set) Steve Roach / Steve Roach 2012 Boxset (Ambient, Electronic) [FLAC (image+.cue), lossless]
Рейтинг:
(голосов: 1)



[img]{THEME}/images/logopost.png[/img]




Исполнитель:Steve Roach
Страна: USA
Бокс Сет:Steve Roach 2012 Boxset
Год выпуска:2012
Жанр:Ambient, Electronic
Формат: FLAC (image+.cue)
Битрейт: lossless
Log-файл: Присутствует
Продолжительность: 03:37:32
Наличие сканов в содержимом раздачи: да

Описание:Steve Roach - американский композитор, пионер эмбиента. Его основное направление — это абстрактные мелодии без ритма (beatless), но он также создал немало ритмических, трансовых и трибально-этнических произведений. Некоторые записи состоят исключительно из синтезаторной музыки, в то время как другие включают в себя эксперименты с гитарой или даже содержат этнические элементы. Умение Роуча создавать органические, замедляющие время абстракции достигло наивысшей точки в 2003 году с выпуском 4-х дискового опуса Mystic Chords & Sacred Spaces. Позже он продолжил совершенствование этого стиля в серии альбомов Immersion. Альбомы Possible Planet и New Life Dreaming возвращают то открытое, дышащее звучание, которое впервые можно было услышать на Structures From Silence и Dreamtime Return, двух ориентирах жанров New Age и Ambient.
Steve Roach 2012 Boxset был выпущен ограниченным тиражом в 500 копий.


Wikipedia|Official page

Бокс Сет :
2012 - CD #1 - Back To Life (FLAC | image+.cue) ▼

Продолжительность: 01:13:37 | 01:09:57

Tреклист:

CD1
01. Where Rasa Lives (14:54)
02. Cloud Cover (09:58)
03. Tranquility Base (16:41)
04. The Wonder Of It All (06:59)
05. Touchstones (04:07)
06. Everything Inside (09:39)
07. Back To Life (11:17)

CD2
01. Mist Of Perception (69:57)

Лог создания рипа CD1 ▼TextExact Audio Copy V1.0 beta 3 from 29. August 2011

Отчёт EAC об извлечении, выполненном 28. января 2012, 20:14

Steve Roach / Back To Life (Disc 1)

Дисковод: PLEXTOR CD-R PREMIUM2 Adapter: 0 ID: 0

Режим чтения : Достоверность
Использование точного потока : Да
Отключение кэша аудио : Да
Использование указателей C2 : Нет

Коррекция смещения при чтении : 30
Способность читать области Lead-in и Lead-out : Да
Заполнение пропущенных сэмплов тишиной : Да
Удаление блоков с тишиной в начале и конце : Нет
При вычислениях CRC использовались нулевые сэмплы : Да
Интерфейс : Встроенный Win32-интерфейс для Win NT/2000

Выходной формат : Внутренние WAV-операции
Формат сэмплов : 44.100 Гц; 16 бит; стерео


TOC извлечённого CD

Трек | Старт | Длительность | Начальный сектор | Конечный сектор
---------------------------------------------------------------------
1 | 0:00.00 | 14:54.28 | 0 | 67077
2 | 14:54.28 | 9:58.32 | 67078 | 111959
3 | 24:52.60 | 16:41.43 | 111960 | 187077
4 | 41:34.28 | 6:59.26 | 187078 | 218528
5 | 48:33.54 | 4:07.18 | 218529 | 237071
 
3d21164ca7d9e67be0385415bcf3e3a8aff3f90d(2012, 3 CD Box set) Steve Roach / Steve Roach 2012 Boxset (Ambient, Electronic) [FLAC (image+.cue), lossless] (2012, 3 CD Box set) Steve Roach / Steve Roach 2012 Boxset (Ambient, Electronic) [FLAC (image+.cue), lossless] " />

Аплоадер: Админ, дата: 13-02-2012, 15:15, торрент скачан: 359 раз

Понравилась раздача? Посмотрите эти:
  • (2000) Lenny Kravitz / Greatest Hits (Rock, Funk) [FLAC (image+.cue), lossl ...
  • (2002) a-ha / Lifelines (Alternative Rock, Synth-pop ) [FLAC (image + .cue ...
  • (2013) Al Di Meola / All Your Life (Fusion) [FLAC (image+.cue), lossless]
  • (1995) Corona / The Rhythm Of The Night (Japan) (Eurodance) [FLAC (image+. ...
  • (2012) Григорий Лепс / Полный вперёд (Шансон) [FLAC (image+.cue), Lossless ...
  • (2011) Schiller / Timeline (Electronic, Lo-Fi, Trance, Ambient, Pop) [FLAC ...
  • (2006) Батырхан Шукенов/ Отан Ана (Pop) [FLAC (image+.cue) lossless]
  • (2011) Within Temptation / The Unforgiving (Symphonic Gothic Metal) [FLAC ( ...
  • (2011) Blues Cousins / KGB Blues (Blues Rock) [FLAC (image+.cue), lossless] ...
  • (2012) The Blues Overdrive / The Blues Overdrive (Blues-Rock) [FLAC (image+ ...
  • (2012) Serebro / Mama Lover (Монолит) (Pop) [FLAC (image+.cue), lossless]
  • (1995) Steve Morse Band / Structural Damage (Instrumental Rock/Blues Rock/J ...
  • (1995) Yaki-Da / Pride (Pop, Eurodance) [FLAC (image+.сue), lossless]
  • (2012) Paradise Lost / Tragic Idol (Limited Edition) (Gothic Rock, Metal) [ ...
  • (2000) Парк Горького (Gorky Park) / The Best (Glam Metal/Hard Rock) [FLAC ...
  • (2004) Ex-Сектор Газа / Огненный рай (Punk-Rock) [FLAC (image+.cue), lossle ...
  • (2008) Студия 80 / Придуманный Мир (Pop) [FLAC (image+.cue), lossless]
  • (2012) Иван Кучин / Золотые хиты (Chanson) [FLAC (image+.cue), lossless]
  • (2012) Иван Кучин / Небесные цветы (Chanson) [FLAC (image+.cue), lossless]
  • (2012) Стас Михайлов / Я открою своё сердце (Шансон) [FLAC (image+.cue), lo ...
  • Информация
    Посетители, находящиеся в группе Гости, не могут оставлять комментарии к данной публикации.