вход на сайт

Имя пользователя :
Пароль :

Восстановление пароля Регистрация
(Дискография 19CD) Daft Punk (Electronic Music, House) [FLAC (tracks+.cue), lossless] (1996 — 2007)
Рейтинг:
(голосов: 1)



[img]{THEME}/images/logopost.png[/img]



Исполнитель: Daft Punk / Бессмысленные отбросы
Жанр: хаус, электронная музыка (Electronic, House)
Страна: Франция
Формат: FLAC (tracks+.cue)
Битрейт: lossless
Годы выпуска: 1996 - 2007
Продолжительность: 12:45:34 часов (2025729384 samples)
О композиторе: Daft Punk — французский электронно-танцевальный дуэт, состоящий из парижских музыкантов Ги-Мануэля де Омем-Кристо (фр. Guy-Manuel de Homem-Christo) и Тома Бангальте (фр. Thomas Bangalter). Название было выбрано под впечатлением рецензии в британском журнале «Melody Maker», где их первый опыт сотрудничества, гитарная группа Darlin в духе Beach Boys, описывался как «куча бессмысленных отбросов» (англ. a bunch of daft punk).

1997: Homework
раскрыть ▼

Тип альбома: студийный
Формат: FLAC (tracks+.cue)
Битрейт: lossless
Год: 1997
Продолжительность: 1:13:53.627 (195522936 samples)

Tреклист:
01. Daft Punk - Daftendirekt...(2:45)
02. Daft Punk - Wdpk 83.7 fm...(0:28)
03. Daft Punk - Revolution 909...(5:27)
04. Daft Punk - Da Funk...(5:29)
05. Daft Punk - Phoenix...(4:57)
06. Daft Punk - Fresh...(4:04)
07. Daft Punk - Around The World...(7:10)
08. Daft Punk - Rollin & Scratchin...(7:28)
09. Daft Punk - Teachers...(2:53)
10. Daft Punk - High Fidelity...(6:02)
11. Daft Punk - Rockn Roll...(7:34)
12. Daft Punk - Oh Yeah...(2:01)
13. Daft Punk - Burnin...(6:54)
14. Daft Punk - Indo Silver Club...(4:35)
15. Daft Punk - Alive...(5:15)
16. Daft Punk - Funk Ad...(0:51)
Отчет EAC ▼
TextExact Audio Copy V0.99 prebeta 5 from 4. May 2009

EAC extraction logfile from 11. October 2009, 14:14

Daft Punk / Homework

Used drive : Optiarc DVD RW AD-7200S Adapter: 0 ID: 0

Read mode : Secure
Utilize accurate stream : Yes
Defeat audio cache : Yes
Make use of C2 pointers : No

Read offset correction : 48
Overread into Lead-In and Lead-Out : No
Fill up missing offset samples with silence : Yes
Delete leading and trailing silent blocks : No
Null samples used in CRC calculations : Yes
Used interface : Native Win32 interface for Win NT & 2000
Gap handling : Appended to previous track

Used output format : User Defined Encoder
Selected bitrate : 320 kBit/s
Quality : High
Add ID3 tag : No
Command line compressor : C:Program FilesExact Audio CopyFlac lac.exe
Additional command line options : -6 -V -T "ARTIST=%a" -T "TITLE=%t" -T "ALBUM=%g" -T "DATE=%y" -T "TRACKNUMBER=%n" -T "GENRE=%m" -T "COMMENT=%e" %s -o %d


TOC of the extracted CD

Track | Start | Length | Start sector | End sector
---------------------------------------------------------
1 | 0:00.00 | 2:44.42 | 0 | 12341
2 | 2:44.42 | 0:28.25 | 12342 | 14466
3 | 3:12.67 | 5:26.43 | 14467 | 38959
4 | 8:39.35 | 5:29.37 |
d94ce2fc2afcf314a40f364f02cf375000ff6cf5(Дискография 19CD) Daft Punk (Electronic Music, House) [FLAC (tracks+.cue), lossless] (1996 — 2007) (Дискография 19CD) Daft Punk (Electronic Music, House) [FLAC (tracks+.cue), lossless] (1996 — 2007) " />

Аплоадер: Админ, дата: 6-03-2011, 00:41, торрент скачан: 359 раз

Понравилась раздача? Посмотрите эти:
  • Pentatonix / Daft Punk [2013, Pop, WEBRip 1080p]
  • (2011) Daft Punk / TRON: Legacy (OST) [MP3, 320 /CBR]
  • (2013) Fall Out Boy / Save Rock and Roll (Pop-Punk) [ALAC (tracks), lossles ...
  • Daft Punk / Get Lucky [2013, pop, WEBRip]
  • (2013) Daft Punk / Random Access Memories (Japanese Edition) (Electronic, P ...
  • (2013) Daft Punk / Random Access Memories (House, Funk, Disco) [mp3, 320 kb ...
  • [2LP] (2013) Daft Punk / Random Access Memories [2444] (House, Disco, Funk) ...
  • Электрома / Daft Punks Electroma (Гай-Мануэль дОмем-Кристо, Том Бангальте / ...
  • Daft Punk (1994-2005)
  • (2007) DAFT PUNK - Alive (electro / house) [mp3 128CBR]
  • (2009, сборник) VA / DA CHIP! 8 bit Daft Punk Remixes (Electronic) [MP3, 13 ...
  • (2008) Daft Punk / Greatest Hits (2CD) (Электронная музыка, Хаус) [MP3 320/ ...
  • (Дискография) Daft Punk (Electronic, House) [MP3, 160-320/VBR/CBR]
  • (2010) Daft Punk / Tron: Legacy (Score) [FLAC (tracks+.cue) lossless]
  • (2010) Bloodhound Gang / Show Us Your Hits (Alternative Rock,Comedy Punk) [ ...
  • (2010) Zaz / Zaz (Nu jazz, Chanson, Soul) [FLAC (tracks+.cue), lossless]
  • (Дискография 2003-2008) Simple Plan (Pop-Punk) [FLAC (tracks + .cue), lossl ...
  • (Дискография, 2002-2010) Murderdolls (Horror Punk) [FLAC (tracks+.cue), los ...
  • (Дискография, 1995-2005) The Bloodhound Gang (Alternative, Punk-Rock) [FLAC ...
  • Daft Punk / TRON LEGACY Derezzed Remix [2010, Electro, WEBRip]
  • Daft Punk / One More Time (2001)
  • Daft Punk vs Adam Freeland / Aer-Obama [2009, House, Electro, HDTV]
  • (2010) Daft Punk / Tron: Legacy (Official soundtrack) [mp3, 320 kbps/CBR]
  • (2011) Daft Punk / Tron: Legacy R3CONFIGUR3D (House, Electro, Techno, Dubst ...
  • (2011) Ленинград / Хна (Rock) [FLAC (tracks+.cue), lossless]
  • Информация
    Посетители, находящиеся в группе Гости, не могут оставлять комментарии к данной публикации.