вход на сайт

Имя пользователя :
Пароль :

Восстановление пароля Регистрация
(2006)R-Tem - Voiceless Гимн Казантипа (Progressive House) [APE (image + cue),lossless]
Рейтинг:
(голосов: 1)



[img]{THEME}/images/logopost.png[/img]



Страна: Россия
Жанр: Progressive House
Год выпуска: 2006
Формат: APE (image + .cue)
Битрейт аудио: lossless
Продолжительность: 1:07:26

Трэклист:
▼01. Intro [02:15]
02. Voiceless (Original Mix) [07:32]
03. Breathe [07:42]
04. Sunrise [05:18]
05. Mood [05:03]
06. House Day [05:34]
07. The Other Side [05:47]
08. MSFG (Original) [09:19]
09. Night Motion [05:31]
10. J-Punch "Red Blood" (R-Tem Remix) [06:05]
11. Voiceless (Kazantip 2005 Mix) [07:16]

Лог ЕАС:
▼Exact Audio Copy V0.99 prebeta 4 from 23. January 2008

Отчёт EAC об извлечении, выполненном 14. августа 2008, 23:35

R-Tem / Voiceless

Дисковод: ASUS DRW-1814BLT Adapter: 0 ID: 1

Режим чтения : Достоверность
Использование точного потока : Да
Отключение кэша аудио : Да
Использование указателей C2 : Нет

Коррекция смещения при чтении : 6
Способность читать области Lead-in и Lead-out : Нет
Заполнение пропущенных сэмплов тишиной : Да
Удаление блоков с тишиной в начале и конце : Нет
При вычислениях CRC использовались нулевые сэмплы : Да
Интерфейс : Встроенный Win32-интерфейс для Win NT/2000

Выходной формат : Monkeys Audio (без потерь)
Выбранный битрейт : Extra High Lossless Compression
Качество : Высокий
Добавление ID3-тэга : Да
Утилита сжатия : C:Program FilesMonkeys AudioMAC.exe

TOC извлечённого CD

Трек | Старт | Длительность | Начальный сектор | Конечный сектор
---------------------------------------------------------------------
1 | 0:00.00 | 2:15.08 | 0 | 10132
2 | 2:15.08 | 7:32.45 | 10133 | 44077
3 | 9:47.53 | 7:42.01 | 44078 | 78728
4 | 17:29.54 | 5:18.32 | 78729 | 102610
5 | 22:48.11 | 5:03.23 | 102611 | 125358
6 | 27:51.34 | 5:34.25 | 125359 | 150433
7 | 33:25.59 | 5:47.66 | 150434 | 176524
8 | 39:13.50 | 9:19.24 | 176525 | 218473
9 | 48:32.74 | 5:31.12 | 218474 | 243310
10 | 54:04.11 | 6:05.47 | 243311 | 270732
11 | 60:09.58 | 7:16.54 | 270733 | 303486

Характеристики диапазона извлечения и сообщения об ошибках

Выбранный диапазон

Имя файла I:ТОРЕНТR-Tem - Voiceless1R-Tem - Voiceless.wav

Пиковый уровень 100.0 %
Качество диапазона 100.0 %
CRC копии 0EA7DB7F
Копирование... OK

Ошибок не произошло

Конец отчёта

Проверено модератором hille


9ffb462a64da2b680b7cdc061b0244cf7cc77efd(2006)R-Tem - Voiceless Гимн Казантипа (Progressive House) [APE (image + cue),lossless] (2006)R-Tem - Voiceless Гимн Казантипа (Progressive House) [APE (image + cue),lossless] " />

Аплоадер: Админ, дата: 10-06-2009, 00:52, торрент скачан: 359 раз

Понравилась раздача? Посмотрите эти:
  • (дискография, 1983-2008) MADONNA (pop / dance) [WavPack (image+.cue) lossle ...
  • (2009) НОЧНЫЕ СНАЙПЕРЫ — Южный полюс (русский рок, сингл) [FLAC (lossless), ...
  • (2000) Tic Tac Toe / Ist der Ruf erst ruiniert... (Rap,Hip-hop) [Lossless, ...
  • (2002) Dschinghis Khan / Star Collection (2CD) (Disco) [APE (image+.cue), l ...
  • (2007) Morandi / N3xt (Pop) [APE, (image + .cue), lossless]
  • (2006) Батырхан Шукенов/ Отан Ана (Pop) [FLAC (image+.cue) lossless]
  • (2006) Tokio / puls 200 (Alternative Rock / Pop Rock) [FLAC (image+.cue) lo ...
  • (1985) BABYS GANG / Challenger (Pop,Italo Disco) [APE(image+.cue)lossless] ...
  • (2011) Within Temptation / The Unforgiving (Symphonic Gothic Metal) [FLAC ( ...
  • (2011) АлисА / 20.12 (Русский Рок) [WavPack (image+.cue), lossless]
  • (2004) Genesis / Platinum Collection (Art Rock) [FLAC (image+.cue), lossles ...
  • (2011) Blues Cousins / KGB Blues (Blues Rock) [FLAC (image+.cue), lossless] ...
  • (2011) АукцЫон / Юла (Rock) [APE (image+.cue), lossless]
  • (Дискография, 1986 - 1999) Crimson Glory (Progressive Heavy Metal) [FLAC (i ...
  • (2007) Pink Floyd / Greatest Hits [Star Mark] (2 CD) (Progressive Rock, Ps ...
  • (2003) THE BLACK EYED PEAS / Elephunk (RnB) [Ape (image+.cue), lossless]
  • (2009) Rihanna / Rated R (R`n`B) [APE (image+.cue)]
  • (2006) УЛЫТАУ / ULYTAU - Жумыр-Кылыш / Jumyr-Kylysh (ethnic / folk metal / ...
  • ( 2001) Воскресение / Звездная коллекция (Rock) [FLAC (image+.cue) lossless ...
  • (1993) Любовь Успенская / Любимый (шансон) [APE (image+.cue), lossless]
  • (2010, сборник) RАЙ / Black Star party (Пашу - 27!) promo mix by DJ Miller ...
  • (2006) Би-2 / Лучшие песни (Rock) [FLAC (image+.cue), lossless]
  • (1995) Юрий Шатунов / Ты помнишь... (Pop) [FLAC(image+.cue), lossless]
  • (2004) Ex-Сектор Газа / Огненный рай (Punk-Rock) [FLAC (image+.cue), lossle ...
  • (2008) Студия 80 / Придуманный Мир (Pop) [FLAC (image+.cue), lossless]
  • Информация
    Посетители, находящиеся в группе Гости, не могут оставлять комментарии к данной публикации.