вход на сайт

Имя пользователя :
Пароль :

Восстановление пароля Регистрация
(2009, сборник) VA / Республика Kazantip Z17 (Mixed by Эд Космонавт) (Trance, Progressive House) [FLAC (image+.сue), lossless]
Рейтинг:
(голосов: 1)



[img]{THEME}/images/logopost.png[/img]



Сборник
Исполнитель: VA
Название сборника: Республика Kazantip Z17 (Mixed by Эд Космонавт)
Год выпуска: 2009
Жанр: Trance, Progressive House
Формат: FLAC (image+.сue)
Битрейт: lossless
Продолжительность: 01:11:24

Tреклист:
1. Sergey Tkachev - Alien & Butterfly (4:51)
2. Stripe & Poroxx & Cosmonaut - Laya (Cosmonaut Mix) (4:35)
3. Ronski Speed - Bluescreen (5:11)
4. 16 Bit Lolitas - Murder Weapon (3:41)
5. Ricky Stone - Shanghai Taxi (Deepgroove RMX & Cosmonaut Resmash) (4:39)
6. Montero - Hard Drive (Ricky Stone & Cosmonaut Resmash) (3:54)
7. Mat Zo - The Price Of Oil (6:19)
8. Cosmic Gate - Sign Of The Times (5:03)
9. Cosmonaut & Satellites - Sunrise (Fonarev & Melodica RMX) (5:44)
10. Oceanlab - On A Good Day (4:38)
11. Mat Zo - Lucky Strike (6:38)
12. Cosmonaut feat. DBF - Override (Tribe Mix) (5:39)
13. Garry Heaney - Too Far Gone (5:09)
14. Bart Claessen & Dave Schiemann - Madness (Super8 & Tab RMX) (5:23)

"Отчет EAC" ▼
TextExact Audio Copy V0.99 prebeta 5 from 4. May 2009

EAC extraction logfile from 31. December 2010, 21:08

Various / Республика Kazantip Z17 (mixed by Эд Космонавт)

Used drive : _NEC DVD_RW ND-7550A Adapter: 1 ID: 0

Read mode : Secure
Utilize accurate stream : Yes
Defeat audio cache : Yes
Make use of C2 pointers : No

Read offset correction : 48
Overread into Lead-In and Lead-Out : No
Fill up missing offset samples with silence : Yes
Delete leading and trailing silent blocks : No
Null samples used in CRC calculations : Yes
Used interface : Native Win32 interface for Win NT & 2000

Used output format : User Defined Encoder
Selected bitrate : 320 kBit/s
Quality : High
Add ID3 tag : No
Command line compressor : D:Program FilesExact Audio CopyFLACFLAC.EXE
Additional command line options : -8 -V %s

TOC of the extracted CD

Track | Start | Length | Start sector | End sector
---------------------------------------------------------
1 | 0:00.00 | 4:51.66 | 0 | 21890
2 | 4:51.66 | 4:35.39 | 21891 | 42554
3 | 9:27.30 | 5:11.06 | 42555 | 65885
4 | 14:38.36 | 3:41.05 | 65886 | 82465
5 | 18:19.41 | 4:39.15 | 82466 | 103405
6 | 22:58.56 | 3:54.54 | 103406 | 121009
7 | 26:53.35 | 6:19.06 | 121010 | 149440
8 | 33:12.41 | 5:03.45 | 149441 | 172210
9 | 38:16.11 | 5:44.50 | 172211 | 198060
10 | 44:00.61 | 4:38.55 | 198061 | 218965
 
bea18912cc9b4d686dfb3c535a0090172ad0d9dc(2009, сборник) VA / Республика Kazantip Z17 (Mixed by Эд Космонавт) (Trance, Progressive House) [FLAC (image+.сue), lossless] (2009, сборник) VA / Республика Kazantip Z17 (Mixed by Эд Космонавт) (Trance, Progressive House) [FLAC (image+.сue), lossless] " />

Аплоадер: Админ, дата: 17-11-2011, 13:47, торрент скачан: 359 раз

Понравилась раздача? Посмотрите эти:
  • (2009, сборник) VA / Республика Kazantip Z17– mixed by Зд Космонавт (Progre ...
  • (2009) SHAKIRA / She Wolf (US Edition) (Pop) [Flac (tracks+.cue), lossless] ...
  • (2010)Scorpions/Sting In The Tail [FLAC (tracks+cue), lossless]
  • (1989) Kaoma / Lambada (lambada / latin / ethnic) [FLAC (image+.cue), lossl ...
  • (2008) Pink / Funhouse (Pop) [FLAC (tracks) lossless]
  • (2010) Сергей Трофимов (Трофим) / Всё не важно (Шансон) [FLAC(image+.cue), ...
  • (2010) Ассаи / Лифт (Rap) [FLAC(image+.cue), lossless]
  • (2008) Oceanlab / Sirens Of The Sea (Trance, Progressive Trance) [FLAC (tra ...
  • (2010) A-HA / 25 (2 CD) (Pop) [FLAC (image + .cue)]
  • (2002) PPK (ППК) / ReLoad. Russian Trance (Trance) [FLAC (tracks+cue), loss ...
  • (2011) Armin van Buuren / Mirage The Remixes (Trance, Progressive Trance, P ...
  • (2011) Sam Levine / Smooth Sax Romance (Smooth Jazz) [FLAC (image+.cue), lo ...
  • (2010) Rihanna / Loud (R&B) [FLAC (tracks+.cue), lossless]
  • (2003) DJ Zinc / Faster (DnB, Breaks) [ FLAC (tracks+.cue), lossless]
  • (1976) The Eagles / Hotel California [Japan Remastered] (Country Rock) [FLA ...
  • (28.01.2011) VA / РЕСПУБЛИКА KAZANTIP: BEST OF THE BEST (House, Club House, ...
  • (2009) Чиж & Co / Лучшее. Золотая коллекция (Rock) [FLAC (image+.cue), loss ...
  • (2011) Слот / F5 (Alternative Metal) [FLAC (image+.cue)lossless]
  • (2011) Слот / Break The Code (Alternative Metal) [FLAC (image+.cue)lossless ...
  • (2011) Ленинград / Хна (Rock) [FLAC (tracks+.cue), lossless]
  • (2009) Mystica / Second Dive (Trance, Ambient & Downtempo, Chill Out) [FLAC ...
  • (2011) Volumes / Via (Progressive Metalcore/Math Metal) [FLAC (image+.cue), ...
  • (2010) Dutch / A Bright Cold Day (Trip-Hop) [FLAC (image+.cue), lossless]
  • (2012) Оргия Праведников / Шитрок (Rock/Progressive Rock) [FLAC (tracks+cue ...
  • (2010) Punish My Heaven / First Punishment (Melodic Death Metal, Metalcore) ...
  • Информация
    Посетители, находящиеся в группе Гости, не могут оставлять комментарии к данной публикации.