вход на сайт

Имя пользователя :
Пароль :

Восстановление пароля Регистрация
(2010, сборник) RАЙ / Black Star party (Пашу - 27!) promo mix by DJ Miller (House) [APE (image+.cue), lossless]
Рейтинг:
(голосов: 1)



[img]{THEME}/images/logopost.png[/img]



RАЙ 18.09.10 - Black Star party (Пашу - 27!) promo mix by DJ Miller

Исполнитель: RАЙ
Альбом: Black Star party (Пашу - 27!) promo mix by DJ Miller
Тип альбома: Студийный (LP)
Год выпуска: 2010
Жанр: House
Формат: APE (image+.cue)
Битрейт: lossless
Продолжительность: 00:64:44

Tреклист:
▼01 Трек01 7:11
02 Трек02 4:42
03 Трек03 4:57
04 Трек04 5:34
05 Трек05 4:57
06 Трек06 5:42
07 Трек07 4:53
08 Трек08 4:33
09 Трек09 5:27
10 Трек10 4:13
11 Трек11 5:57
11 Трек12 6:31

Отчет EAC:
▼TextExact Audio Copy V0.99 prebeta 5 from 4. May 2009
Отчёт EAC об извлечении, выполненном 29. ноября 2010, 14:49
DJ Miller / Black Star Party (день рождения Пашу)
Дисковод: TSSTcorpDVD+-RW TS-H653F Adapter: 3 ID: 0
Режим чтения : Достоверность
Использование точного потока : Да
Отключение кэша аудио : Да
Использование указателей C2 : Нет
Коррекция смещения при чтении : 6
Способность читать области Lead-in и Lead-out : Нет
Заполнение пропущенных сэмплов тишиной : Да
Удаление блоков с тишиной в начале и конце : Нет
При вычислениях CRC использовались нулевые сэмплы : Да
Интерфейс : Встроенный Win32-интерфейс для Win NT/2000
Выходной формат : Внутренние WAV-операции
Формат сэмплов : 44.100 Гц; 16 бит; стерео
TOC извлечённого CD
Трек | Старт | Длительность | Начальный сектор | Конечный сектор
---------------------------------------------------------------------
1 | 0:00.00 | 7:11.44 | 0 | 32368
2 | 7:11.44 | 4:42.59 | 32369 | 53577
3 | 11:54.28 | 4:57.52 | 53578 | 75904
4 | 16:52.05 | 5:34.63 | 75905 | 101017
5 | 22:26.68 | 4:57.54 | 101018 | 123346
6 | 27:24.47 | 5:42.35 | 123347 | 149031
7 | 33:07.07 | 4:53.63 | 149032 | 171069
8 | 38:00.70 | 4:33.33 | 171070 | 191577
9 | 42:34.28 | 5:27.34 | 191578 | 216136
10 | 48:01.62 | 4:13.06 | 216137 | 235117
11 | 52:14.68 | 5:57.30 | 235118 | 261922
12 | 58:12.23 | 6:31.70 | 261923 | 291317
Характеристики диапазона извлечения и сообщения об ошибках
Выбранный диапазон
Имя файла C:UsersАдминистраторMusicDJ Miller - Black Star Party (день рождения Пашу).wav
Пик
e6c2771ca2701bde36ffd6dba9708c0a713e0ca7(2010, сборник) RАЙ / Black Star party (Пашу - 27!) promo mix by DJ Miller (House) [APE (image+.cue), lossless] (2010, сборник) RАЙ / Black Star party (Пашу - 27!) promo mix by DJ Miller (House) [APE (image+.cue), lossless] " />

Аплоадер: Админ, дата: 3-12-2010, 00:42, торрент скачан: 359 раз

Понравилась раздача? Посмотрите эти:
  • (2000) Lenny Kravitz / Greatest Hits (Rock, Funk) [FLAC (image+.cue), lossl ...
  • (дискография, 1983-2008) MADONNA (pop / dance) [WavPack (image+.cue) lossle ...
  • (2008) VANESSA MAE / Star Mark Greatest Hits [2CD] (Neoclassical / Violin / ...
  • (2000) Tic Tac Toe / Ist der Ruf erst ruiniert... (Rap,Hip-hop) [Lossless, ...
  • (2002) Dschinghis Khan / Star Collection (2CD) (Disco) [APE (image+.cue), l ...
  • (1994) Joy / Grand Collection (EuroDisco) [FLAC (image+.cue) lossless]
  • (2010) Баста / Баста 3 (Rap) [APE (image+.cue), lossless]
  • (2010) ST1M / Октябрь (Rap) [APE(image+.cue), lossless]
  • (2006) Батырхан Шукенов/ Отан Ана (Pop) [FLAC (image+.cue) lossless]
  • (2010) Noize MC / Последний Альбом (Rap) [APE(image+.cue), lossless]
  • (2010) ДиДюЛя / Аромат (flamenco, instrumental, folk) [APE (image + .cue), ...
  • (1985) BABYS GANG / Challenger (Pop,Italo Disco) [APE(image+.cue)lossless] ...
  • (2010) ДаБац (Da Budz) / Вершки Да Корешки(Rap) [APE (image+.cue), lossless ...
  • (2011) АлисА / 20.12 (Русский Рок) [WavPack (image+.cue), lossless]
  • (2011) Blues Cousins / KGB Blues (Blues Rock) [FLAC (image+.cue), lossless] ...
  • (2005) плюм-Бум / Чистая правда (Funk, Reggae, Pop-Punk) [APE(image+.cue), ...
  • (2011) АукцЫон / Юла (Rock) [APE (image+.cue), lossless]
  • (2003) THE BLACK EYED PEAS / Elephunk (RnB) [Ape (image+.cue), lossless]
  • (2009) Rihanna / Rated R (R`n`B) [APE (image+.cue)]
  • (2006) Timati / Black Star (R&B) [(APE+.cue), lossless]
  • (2009) Челси / Точка возврата (Pop) [APE (image+.cue), lossless]
  • (2009, Cборник) Madonna / Greatest Hits [CD1 + CD2] (Pop) [APE (image+.cue) ...
  • (2011) N1NT3NDO / N1NT3NDO (Rap) [APE (image+.сue), lossless]
  • (1995) Юрий Шатунов / Ты помнишь... (Pop) [FLAC(image+.cue), lossless]
  • (2004) Ex-Сектор Газа / Огненный рай (Punk-Rock) [FLAC (image+.cue), lossle ...
  • Информация
    Посетители, находящиеся в группе Гости, не могут оставлять комментарии к данной публикации.