вход на сайт

Имя пользователя :
Пароль :

Восстановление пароля Регистрация
(2012) The Piano Guys / The Piano Guys (Contemporary Classic, Instrumental, New Age) [FLAC (tracks+.cue), lossless]
Рейтинг:
(голосов: 1)



[img]{THEME}/images/logopost.png[/img]



Исполнитель: The Piano Guys
Альбом: The Piano Guys
Тип альбома: Студийный
Год выпуска: 2012
Жанр: Contemporary Classic, Instrumental, New Age
Формат: FLAC (*.flac)
Тип рипа: tracks+.сue
Битрейт: lossless
Log-файлы: присутствуют
Продолжительность:00:52:59

Треклист:

01. The Piano Guys - Titanium / Pavane (04:50)
02. The Piano Guys - Peponi (Paradise) (04:10)
03. The Piano Guys - Code Name Vivaldi (04:06)
04. The Piano Guys - Beethovens 5 Secrets (05:09)
05. The Piano Guys - Over The Rainbow / Simple Gifts (03:44)
06. The Piano Guys - Cello Wars (03:31)
07. The Piano Guys - Arwens Vigil (03:55)
08. The Piano Guys - Moonlight (03:28)
09. The Piano Guys - A Thousand Years (04:36)
10. The Piano Guys - Michael Meets Mozart (05:20)
11. The Piano Guys - The Cello Song (03:16)
12. The Piano Guys - Rolling In The Deep (03:52)
13. The Piano Guys - What Makes You Beautiful (02:54)

Лог извлечения: ▼Text
Exact Audio Copy V1.0 beta 2 from 29. April 2011

EAC extraction logfile from 2. October 2012, 22:45

The Piano Guys / The Piano Guys

Used drive : ASUS DRW-2014L1T Adapter: 3 ID: 0

Read mode : Secure
Utilize accurate stream : Yes
Defeat audio cache : Yes
Make use of C2 pointers : No

Read offset correction : 6
Overread into Lead-In and Lead-Out : No
Fill up missing offset samples with silence : Yes
Delete leading and trailing silent blocks : No
Null samples used in CRC calculations : Yes
Used interface : Native Win32 interface for Win NT & 2000
Gap handling : Appended to previous track

Used output format : User Defined Encoder
Selected bitrate : 1024 kBit/s
Quality : High
Add ID3 tag : No
Command line compressor : C:Program Files (x86)FLACflac.exe
Additional command line options : -8 -V -T "ARTIST=%artist%" -T "TITLE=%title%" -T "ALBUM=%albumtitle%" -T "DATE=%year%" -T "TRACKNUMBER=%tracknr%" -T "GENRE=%genre%" -T "PERFORMER=%albuminterpret%" -T "COMPOSER=%composer%" %haslyrics%--tag-from-file=LYRICS


TOC of the extracted CD

Track | Start | Length | Start sector | End sector
---------------------------------------------------------
1 | 0:00.00 | 4:50.55 | 0 | 21804
2 | 4:50.55 | 4:10.71 | 21805 | 40625
3 | 9:01.51 | 4:06.52 | 40626 | 59127
4 | 13:08.28 | 5:09.59 | 59128 | 82361
5 | 18:18.12 | 3:44.14 | 82362 | 99175
6 | 22:02.26 | 3:31.72 | 99176 | 115072
7 | 25:34.23 | 3:55.51 | 115073
420def7aeaceea7f496b1077b6b64eacd5c96b6b(2012) The Piano Guys / The Piano Guys (Contemporary Classic, Instrumental, New Age) [FLAC (tracks+.cue), lossless] (2012) The Piano Guys / The Piano Guys (Contemporary Classic, Instrumental, New Age) [FLAC (tracks+.cue), lossless] " />

Аплоадер: Админ, дата: 9-12-2012, 03:54, торрент скачан: 359 раз

Понравилась раздача? Посмотрите эти:
  • (2013) Roger Taylor (Queen) / Fun On Earth (Rock) [FLAC (image+.cue), lossl ...
  • The Piano Guys / Beethovens 5 Secrets [2013, Classical, WEBRip]
  • (2013) RammsteiN / Piano Instrumental (Instrumental) [MP3, 256-320/CBR]
  • The Piano Guys ft. Alex Boye / Paradise (Peponi) African Style [2012, Pop, ...
  • The Piano Guys / A Thousand Years (Christina Perri)[2012, Pop, WEBRip]
  • (2013) Richard Clayderman / Romantique (Easy Listening, Instrumental, Class ...
  • (Сборник, 2007-2009) VA / Romantic Of Nature I - VI (New Age, Piano, Relax, ...
  • (2011) Ludovico Einaudi / Islands: Essential Einaudi (Classical, Contempora ...
  • (Дискография, 1998-2005) Jeanette Alexander (Instrumental, New Age, Piano S ...
  • (2012) Yiruma / Stay In Memory (New Age, Instrumental, Neoclassical, Piano) ...
  • (2008, Сборник) VA / Relax Piano - Yesterday - Trai Tim Mua Thu - Vol.7 (Ne ...
  • (2012) Omar Akram / Echoes Of Love (New Age, Instrumental, Piano) [FLAC (tr ...
  • (2012) Marc Enfroy / Dreams Of The Forest (New Age, Instrumental, Cinematic ...
  • (2012, сборник) VA / Christmas Piano Masters (Instrumental, Piano, Holiday) ...
  • (2012) Nightwish / The Crow, The Owl And The Dove (Sympho-Power Metal) [FLA ...
  • (2011) SeeS / The enD (Progressive/Math Metal) [FLAC (tracks+.cue), lossles ...
  • (2012) Nightwish / Imaginaerum (Tour Edition) (Sympho Power Metal) [FLAC (t ...
  • (2012) Nine Lashes / World We View (Alt.Rock/Alt.Metal/Christian) [FLAC (tr ...
  • (2011) Phinehas / Thegodmachine (Metalcore) [FLAC (tracks+.cue), lossless]
  • (2012) For Today / Immortal (Metalcore, Hardcore, Christian) [FLAC (tracks+ ...
  • Информация
    Посетители, находящиеся в группе Гости, не могут оставлять комментарии к данной публикации.