вход на сайт

Имя пользователя :
Пароль :

Восстановление пароля Регистрация
(Дискография, 1998-2005) Jeanette Alexander (Instrumental, New Age, Piano Solo) [FLAC (tracks+.cue), lossless]
Рейтинг:
(голосов: 1)



[img]{THEME}/images/logopost.png[/img]



Дискография
Исполнитель: Jeanette Alexander
Страна: US
Жанр: Instrumental, New Age, Piano Solo
Формат:FLAC (tracks+.сue)
Битрейт:lossless
Log-файлы: присутствуют
Продолжительность:02:28:23

Official page

Студийные Альбомы:

1998 - Still Point (Re-issue, 2010) (CreativeMusicProduction/608881981021):



Продолжительность:00:51:01

Tреклист:

01. Jeanette Alexander - Sunrise (04:23)
02. Jeanette Alexander - Linden (04:01)
03. Jeanette Alexander - Storyteller (02:39)
04. Jeanette Alexander - Year to Live (04:27)
05. Jeanette Alexander - Still Here (04:49)
06. Jeanette Alexander - Dont Ask Me Why (03:59)
07. Jeanette Alexander - Reunion (04:26)
08. Jeanette Alexander - Rain (03:16)
09. Jeanette Alexander - Keep the Promise (07:10)
10. Jeanette Alexander - Moorning Walk (03:46)
11. Jeanette Alexander - Best of Friends (04:26)
12. Jeanette Alexander - The Passage (03:33)

EAC Log: ▼Text
Exact Audio Copy V1.0 beta 1 from 15. November 2010

EAC extraction logfile from 23. May 2011, 9:36

Jeanette Alexander / Still Point

Used drive : TSSTcorpCDW/DVD SH-M522C Adapter: 1 ID: 0

Read mode : Secure
Utilize accurate stream : Yes
Defeat audio cache : Yes
Make use of C2 pointers : No

Read offset correction : 6
Overread into Lead-In and Lead-Out : No
Fill up missing offset samples with silence : Yes
Delete leading and trailing silent blocks : No
Null samples used in CRC calculations : Yes
Used interface : Native Win32 interface for Win NT & 2000
Gap handling : Appended to previous track

Used output format : User Defined Encoder
Selected bitrate : 1024 kBit/s
Quality : High
Add ID3 tag : No
Command line compressor : C:софтFlacflac.exe
Additional command line options : -8 -V -T "ARTIST=%a" -T "TITLE=%t" -T "ALBUM=%g" -T "DATE=%y" -T "GENRE=%m" -T "COMMENT=ripped by DrStandBy" %s


TOC of the extracted CD

Track | Start | Length | Start sector | End sector
---------------------------------------------------------
1 | 0:00.00 | 4:26.25 | 0 | 19974
2 | 4:26.25 | 4:04.09 | 19975 | 38283
3 | 8:30.34 | 2:42.38 | 38284 | 50471
4 | 11:12.72 | 4:29.52 | 50472 | 70698
5 | 15:42.49 | 4:51.57 | 70699 | 92580
6 | 20:34.31 | 4:01.28 | 92581 | 110683
7 | 24:35.59 | 4:28.44 | 110684 | 130827
8 | 29:04
aa78ffc74d417de937cac642e210331d3a52deef(Дискография, 1998-2005) Jeanette Alexander (Instrumental, New Age, Piano Solo) [FLAC (tracks+.cue), lossless] (Дискография, 1998-2005) Jeanette Alexander (Instrumental, New Age, Piano Solo) [FLAC (tracks+.cue), lossless] " />

Аплоадер: Админ, дата: 3-06-2012, 21:29, торрент скачан: 359 раз

Понравилась раздача? Посмотрите эти:
  • (2013) Richard Clayderman / Romantique (Easy Listening, Instrumental, Class ...
  • (2010) Вячеслав Бутусов и Ю-Питер / Цветы и Тернии (Rock) [FLAC (tracks + . ...
  • (2010) Zaz / Zaz (Nu jazz, Chanson, Soul) [FLAC (tracks+.cue), lossless]
  • (2011) Adele / 21 (Jazz, Lounge, Easy Listening) [FLAC (tracks + .cue), los ...
  • (2011) Daughtry / Break the Spell (Deluxe Edition) (Alt. Rock / Modern Rock ...
  • (2011) Виктория - победительница / Victorious (OST) [FLAC (tracks+.cue), lo ...
  • (2011) B.B. King / Icon (Blues) [FLAC (tracks+.cue), lossless]
  • (2012) Yiruma / Stay In Memory (New Age, Instrumental, Neoclassical, Piano) ...
  • (2008, Сборник) VA / Relax Piano - Yesterday - Trai Tim Mua Thu - Vol.7 (Ne ...
  • (2011) Alex Clare / The Lateness of the Hour (Soul, Pop, Dubstep) [FLAC (tr ...
  • (2012) The Piano Guys / The Piano Guys (Contemporary Classic, Instrumental, ...
  • (2012) Marc Enfroy / Dreams Of The Forest (New Age, Instrumental, Cinematic ...
  • (2011) Ляпис Трубецкой / Веселые картинки (Rock) [FLAC (tracks+.cue), lossl ...
  • (2011) Scorpions / Comeblack (Hard Rock) [FLAC (tracks+.cue)lossless]
  • (2011) Дельфин / Существо (Alternative|Experimental) [FLAC (tracks+.cue), l ...
  • (2011) Ленинград / Хна (Rock) [FLAC (tracks+.cue), lossless]
  • (2012) Buckethead / Electric Sea (Experimental/Acoustic/Ambient/Rock) [FLAC ...
  • (2012) Nightwish / The Crow, The Owl And The Dove (Sympho-Power Metal) [FLA ...
  • (2005) Magna Canta / Agnus Dei (Mysticpop, Ambientpop) [FLAC (tracks+.сue), ...
  • (2012) Les Friction / Les Friction (Alt. Rock/Neo-Classical/Orchestral) [FL ...
  • (2011) SeeS / The enD (Progressive/Math Metal) [FLAC (tracks+.cue), lossles ...
  • (2012) Our Lady Peace / Curve (Alternative/Rock) [FLAC (tracks+.cue), lossl ...
  • (2012) Nine Lashes / World We View (Alt.Rock/Alt.Metal/Christian) [FLAC (tr ...
  • (2011) Phinehas / Thegodmachine (Metalcore) [FLAC (tracks+.cue), lossless]
  • (2012) For Today / Immortal (Metalcore, Hardcore, Christian) [FLAC (tracks+ ...
  • Информация
    Посетители, находящиеся в группе Гости, не могут оставлять комментарии к данной публикации.