вход на сайт

Имя пользователя :
Пароль :

Восстановление пароля Регистрация
(2008, 6xCD Box Set) VA - Live Image History Box/ Emotional & Relaxing (Japanese Press & Release) (Classical, New Age, Folk) [APE (image+.cue), lossless]
Рейтинг:
(голосов: 1)



[img]{THEME}/images/logopost.png[/img]




Emotional & Relaxing - Live Image History Box
(Japanese Press & Release)
Исполнитель: VA
Страна-производитель диска:: Japan
Бокс Сет: Emotional & Relaxing (Live Image History Box)
Издатель (лейбл): Sony Music Japan (Catalog#: SICC 861-866)
Год выпуска: 2008
Жанр: Classical, New Age, Folk
Формат: APE (image+.cue)
Битрейт: Lossless
Лог-файлы: Присутствуют
Наличие сканов в содержимом раздачи: Да (600Dpi)
Продолжительность: 07:33:59
Дополнительно: Токийские концерты с участием звёзд Страны восходящего солнца и специально приглашёнными гостями, такими как: Deep Forest, Wes, Karl Jenkins (Adiemus), Ennio Morricone, Vangelis и др.
Live Image - это концертная запись, без эффекта присутствия публики и хлопанья в ладоши.
2000 - Live Image 1 (Catalog#: SICC 861) (APE/image+.cue)
Продолжительность: 01:01:08 ▼


Tреклист:
01. Karl Jenkins - Shallow Fog (3:09)
02. Taro Hakase - Tufted Puffin (5:06)
03. Yo-Yo Ma - Libertango (3:10)
04. Old Board - Corridor Foreigner 2001 (3:26)
05. Takashi Kako - Paris Burning? (5:02)
06. Takashi Kako - Cheers to Earth (3:49)
07. Gontiti - After-School Music Room (4:06)
08. James Horner - Rose (2:53)
09. Assad Brothers Hurusawa Iwao - New Cinema Paradise (3:20)
10. Charlotte Church - Pie Jesu (3:25)
11. Ennio Morricone - Crazy In Love (3:05)
12. Takashi Kako - Twilight Waltz (3:17)
13. Miyamoto Humiaki featuring Michiru Oshima - Bagpipe (3:15)
14. Rodrigo Leao & Vox Ensemble - Ave Mundi (4:39)
15. Ryuichi Sakamoto - Before Long (1:21)
16. Komatsu Ryouta with Taro Hakase & Deep Forest - Continents Passion (5:00)
17. Toriyama Yuuzi - Song of Life (3:09)

Отчет EAC ▼TextExact Audio Copy V0.99 prebeta 5 from 4. May 2009
Отчёт EAC об извлечении, выполненном 10. августа 2010, 22:03
VA / Live Image 1 (Image History Box - Japanese Press & Release)
Дисковод: TSSTcorpCDDVDW SH-S223F Adapter: 0 ID: 1
Режим чтения : Достоверность
Использование точного потока : Да
Отключение кэша аудио : Да
Использование указателей C2 : Нет
Коррекция смещения при чтении : 6
Способность читать области Lead-in и Lead-out : Нет
Заполнение пропущенных сэмплов тишиной : Да
Удаление блоков с тишиной в начале и конце : Нет
При вычислениях CRC использовались нулевые сэмплы : Да
Интерфейс : Установленный внешний ASPI-интерфейс
Выходной формат : Внутренние WAV-операции
Формат сэмплов : 44.100 Гц; 16 бит; стерео
TOC извлечённого CD
Трек | Старт | Длительность | Начальный сектор | Конечный сектор
---------------------------------------------------------------------
1 | 0:00.00 | 3:09.10 | 0 | 14184
2 | 3:09.10 | 5:06.02 | 14185 | 37136
3 | 8:15.12 | 3:09.50 | 37137 | 51361
4 | 11:24.62 | 3:25.60 | 51362 | 66796
5 | 14:50.47 | 5:02.20 | 66797 | 89466
6 | 19:52.67 | 3:49.15 | 89467 | 106656
7 | 23:42.07 | 4:06.13 | 106657 | 125119
8 | 27:48.20 | 2:52.67 | 125120 | 138086
9 | 30:41.12 | 3:20.10 | 138087 | 153096
10 | 34:01.22 | 3:25.15 | 153097 | 168486
11 | 37:26.37 | 3:05.30 | 168487 | 182391
12 | 40:31.67 | 3:17.23 | 182392 | 197189
13 | 43:49.15 | 3:14.65 | 197190 | 211804
14 | 47:04.05 | 4:32.20 | 211805 | 232224
15 | 51:36.25 | 1:21.32 | 232225 | 238331
16 | 52:57.57 | 5:00.35 | 238332 | 260866
17 | 57:58.17 | 3:09.60 | 260867 | 275101
Характеристики диапазона извлечения и сообщения об ошибках
Выбранный диапазон
Имя файла K:LOSSLESSUploadImage History Box - Emotional & Relaxing (Japanese Press & Release)2000 - Live Image 1VA - Live Image 1 (Image History Box - Japanese Press & Release).wav
Пиковый уровень 100.0 %
Качество диапазона 100.0 %
CRC теста D8DAFF23
CRC копии D8DAFF23
Копирование... OK
Ошибок не произошло
AccurateRip: сводка
Трек 1 точность не определена (достоверность 2) [13BEC37C], AccurateRip вернул [CC3BC1E4]
Трек 2 точность не определена (достоверность 2) [7E8E568D], AccurateRip вернул [FF84877F]
Трек 3 точность не определена (достоверность 2) [04F27BBD], AccurateRip вернул [C0E80477]
Трек 4 точность не определена (достоверность 2) [2508CC39], Ac
fc8571fdd0f5ce1fa60e4e9755d6c7f000cf83ac(2008, 6xCD Box Set) VA - Live Image History Box/ Emotional & Relaxing (Japanese Press & Release) (Classical, New Age, Folk) [APE (image+.cue), lossless] (2008, 6xCD Box Set) VA - Live Image History Box/ Emotional & Relaxing (Japanese Press & Release) (Classical, New Age, Folk) [APE (image+.cue), lossless] " />

Аплоадер: Админ, дата: 10-05-2012, 20:15, торрент скачан: 359 раз

Понравилась раздача? Посмотрите эти:
  • (1987) George Michael /Faith (1st Press Japan) (Electronic, Pop/Rock) [APE ...
  • (дискография, 1983-2008) MADONNA (pop / dance) [WavPack (image+.cue) lossle ...
  • (2000) Tic Tac Toe / Ist der Ruf erst ruiniert... (Rap,Hip-hop) [Lossless, ...
  • (2008) НоГГано / Первый (Rap) [APE(image+cue), lossless]
  • (1999) Ennio Morricone / Romantic Collection (Classical) [FLAC (image+.cue) ...
  • (1994) Joy / Grand Collection (EuroDisco) [FLAC (image+.cue) lossless]
  • (2010) Баста / Баста 3 (Rap) [APE (image+.cue), lossless]
  • (2010) ST1M / Октябрь (Rap) [APE(image+.cue), lossless]
  • (2010) ДиДюЛя / Аромат (flamenco, instrumental, folk) [APE (image + .cue), ...
  • (1984) Boney M / Ten Thousand Lightyears (Disco) [APE (image+.cue) lossles ...
  • (1985) BABYS GANG / Challenger (Pop,Italo Disco) [APE(image+.cue)lossless] ...
  • (2010) ДаБац (Da Budz) / Вершки Да Корешки(Rap) [APE (image+.cue), lossless ...
  • (2011) Within Temptation / The Unforgiving (Symphonic Gothic Metal) [FLAC ( ...
  • (2011) АлисА / 20.12 (Русский Рок) [WavPack (image+.cue), lossless]
  • (2011) Blues Cousins / KGB Blues (Blues Rock) [FLAC (image+.cue), lossless] ...
  • (2011) АукцЫон / Юла (Rock) [APE (image+.cue), lossless]
  • (Дискография, 1986 - 1999) Crimson Glory (Progressive Heavy Metal) [FLAC (i ...
  • (2009) Rihanna / Rated R (R`n`B) [APE (image+.cue)]
  • (1993) Любовь Успенская / Любимый (шансон) [APE (image+.cue), lossless]
  • (2009, Cборник) Madonna / Greatest Hits [CD1 + CD2] (Pop) [APE (image+.cue) ...
  • (2009) Земфира / Z-Sides (Rock) [FLAC(image+.cue), lossless ]
  • (Дискография, 2005-2008) Ёлка (R&B, Reggae, Pop) [APE (image+.cue); FLAC (i ...
  • (1995) Юрий Шатунов / Ты помнишь... (Pop) [FLAC(image+.cue), lossless]
  • (1988) Fausto Papetti / Grand Collection (POP, Jazz) [FLAC (image+.cue), lo ...
  • (2008) Студия 80 / Придуманный Мир (Pop) [FLAC (image+.cue), lossless]
  • Информация
    Посетители, находящиеся в группе Гости, не могут оставлять комментарии к данной публикации.