вход на сайт

Имя пользователя :
Пароль :

Восстановление пароля Регистрация
(2001-2003, сборник) VA / Acoustic Café (4xCD) (Classical, New Age) [FLAC (tracks+.cue), lossless]
Рейтинг:
(голосов: 1)



[img]{THEME}/images/logopost.png[/img]




Acoustic Café
Исполнитель: VA
Название сборника: Acoustic Café
Год выпуска: 2001-2003
Жанр: Classical, New Age
Формат: FLAC (tracks+.cue)
Битрейт: Lossless
Лог-файлы: Присутствуют
Продолжительность: 03:46:42

2001 - For Your Loneliness (Flac/divacks+.cue)
Продолжительность: 00:50:17 ▼


Tреклист:
[03:45] 01. Acoustic Cafe - Nuovo Cinema Paradiso Medley - Ennio Morricone
[02:43] 02. Acoustic Cafe - Norwegian Woods(This Bird Has Flown) - John Lennon & Paul McCartney
[03:41] 03. Acoustic Cafe - Liebeid - Fritz Kreisler
[02:52] 04. Acoustic Cafe - Salut Damour - Edward Elgar
[03:52] 05. Acoustic Cafe - Sicilenne - Gabriel Faure
[05:59] 06. Acoustic Cafe - Eternity - Yuriko Nakamura
[05:48] 07. Acoustic Cafe - Invierno Porteno~Libertango - Astor Piazzolla
[07:02] 08. Acoustic Cafe - Sound Of Music Medley - Richard Rodgers
[05:39] 09. Acoustic Cafe - The Ancient Sun - Norihiro Tsuru
[04:04] 10. Acoustic Cafe - Je Te Veux - Erik Satie
[04:49] 11. Acoustic Cafe - When You Wish Upon A Star - Ned Washington & Leigh Harline


Отчет EAC ▼TextExact Audio Copy V1.0 beta 1 from 15. November 2010
Exact Audio Copy V0.99 prebeta 4 from 23. January 2008
EAC extraction logfile from 14. May 2009, 20:17
Acoustic Cafe / For Your Loneliness
Used drive : HL-DT-STDVD-RAM GSA-H30N Adapter: 5 ID: 0
Read mode : Secure
Utilize accurate stream : Yes
Defeat audio cache : Yes
Make use of C2 pointers : No
Read offset correction : 102
Overread into Lead-In and Lead-Out : No
Fill up missing offset samples with silence : Yes
Delete leading and trailing silent blocks : No
Null samples used in CRC calculations : Yes
Used interface : Native Win32 interface for Win NT & 2000
Gap handling : Appended to previous track
Used output format : User Defined Encoder
Selected bitrate : 128 kBit/s
Quality : High
Add ID3 tag : No
Command line compressor : C:Program FilesFLACflac.exe
Additional command line options : -8 -V -T "ARTIST=%a" -T "TITLE=%t" -T "ALBUM=%g" -T "DATE=%y" -T "TRACKNUMBER=%n" -T
"GENRE=%m" -T "COMMENT=EAC FLAC -8" %s
TOC of the extracted CD
Track | Start | Length | Start sector | End sector
---------------------------------------------------------
1 | 0:00.00 | 3:45.01 | 0 | 16875
2 | 3:45.01 | 2:43.09 | 16876 | 29109
3 | 6:28.10 | 3:41.00 | 29110 | 45684
4 | 10:09.10 | 2:52.21 | 45685 | 58605
5 | 13:01.31 | 3:52.46 | 58606 | 76051
6 | 16:54.02 | 5:59.21 | 76052 | 102997
7 | 22:53.23 | 5:48.17 | 102998 | 129114
8 | 28:41.40 | 7:02.58 | 129115 | 160822
9 | 35:44.23 | 5:39.30 | 160823 | 186277
10 | 41:23.53 | 4:04.44 | 186278 | 204621
11 | 45:28.22 | 4:49.50 | 204622 | 226346
Track 1
Filename D:MusicAcoustic Cafe - For Your Loneliness [2001]Acoustic Cafe - For Your Loneliness [2001] flac�1 - Nuovo
Cinema Paradiso Medley - Ennio Morricone.wav
Pre-gap length 0:00:02.00
Peak level 98.7 %
Track quality 100.0 %
Test CRC 45DEE11A
Copy CRC 45DEE11A
Track not present in AccurateRip database
Copy OK
Track 2
Filename D:MusicAcoustic Cafe - For Your Loneliness [2001]Acoustic Cafe - For Your Loneliness [2001] flac�2 -
Norwegian Woods(This Bird Has Flown) - John Lennon & Paul McCartney.wav
Peak level 99.0 %
Track quality 100.0 %
Test CRC 25489819
Copy CRC 25489819
Track not present in AccurateRip database
Copy OK
Track 3
Filename D:MusicAcoustic Cafe - For Your Loneliness [2001]Acoustic Cafe - For Your Loneliness [2001] flac�3 - Liebeid
- Fritz Kreisler.wav
Peak level 78.6 %
Track quality 100.0 %
Test CRC F92700F3
Copy CRC F92700F3
Track not present in AccurateRip database
Copy OK
Track 4
Filename D:MusicAcoustic Cafe - For Your Loneliness [2001]Acoustic Cafe - For Your Loneliness [2001] flac�4 - Salut
Damour - Edward Elgar.wav
Peak level 89.0 %
Track quality 100.0 %
Test CRC A433C1A3
Copy CRC A433C1A3
Track not present in AccurateRip database
Copy OK
Track 5
Filename D:MusicAcoustic Cafe - For Your Loneliness [2001]Acoustic Cafe - For Your Loneline
82b759354735b7d7382836e06fe0a9ceba4e63cd(2001-2003, сборник) VA / Acoustic Café (4xCD) (Classical, New Age) [FLAC (tracks+.cue), lossless] (2001-2003, сборник) VA / Acoustic Café (4xCD) (Classical, New Age) [FLAC (tracks+.cue), lossless] " />

Аплоадер: Админ, дата: 6-05-2012, 05:30, торрент скачан: 359 раз

Понравилась раздача? Посмотрите эти:
  • (2013) Girls Generation (SNSD) - Galaxy Supernova / Galaxy Supernova (KPop) ...
  • (2012, Сборник) VA / Vintage Cafe 1,2 (4xCD) (Lounge, Lo-Fi, Jazz Blends) [ ...
  • (2010) Zaz / Zaz (Nu jazz, Chanson, Soul) [FLAC (tracks+.cue), lossless]
  • (2008) Adele / 19 {2CD EXPANDED EDITION} (Blues / Funk / Gospel) [FLAC (tra ...
  • (2011) Orjan Nilsen / In My Opinion (Trance) [FLAC (tracks+.cue), lossless] ...
  • (2002) PPK (ППК) / ReLoad. Russian Trance (Trance) [FLAC (tracks+cue), loss ...
  • (2010) Ravenna / Debrief (Alt. Rock / Christian Rock / Indie) [FLAC (tracks ...
  • (2012) Katie Melua / Secret Symphony (Jazz Pop, Vocal Jazz) [FLAC (tracks+. ...
  • (2011) B.B. King / Icon (Blues) [FLAC (tracks+.cue), lossless]
  • (2012) Amy MacDonald / Life In A Beautiful Light (Deluxe Edition) (Acoustic ...
  • (2012, Сборник) VA / Cafe Del Mar XVIII (2CD) (Lounge) [FLAC (tracks+.cue), ...
  • (2006) The Rasmus / Shot (Single) (Alternative Rock) [FLAC (tracks+.cue), l ...
  • (2011) Linkin Park / Iridescent (Alternative Rock) [FLAC(image+.cue), lossl ...
  • (2011) Rammstein / Mein Land (Neue Deutsche Harte, Industrial, Tanz-Metal) ...
  • (2011) This Will Destroy You / Tunnel Blanket (Post Rock) [FLAC (tracks+.cu ...
  • (2012) Buckethead / Electric Sea (Experimental/Acoustic/Ambient/Rock) [FLAC ...
  • (Дискография, 2002 - 2012) Rodrigo y Gabriela (Acoustic, Flamenco, Classica ...
  • (2011) Breaking Benjamin / Shallow Bay: The Best of Breaking Benjamin (Alte ...
  • (2011) Florence & The Machine / Ceremonials (Deluxe Edition) (Indie/Alterna ...
  • (2011) Ink Stained Promises / Relations. (Metalcore, Hardcore) [FLAC (track ...
  • Информация
    Посетители, находящиеся в группе Гости, не могут оставлять комментарии к данной публикации.