вход на сайт

Имя пользователя :
Пароль :

Восстановление пароля Регистрация
(2007) Fausto Papetti / Papetti Gold (Instrumental, Easy Listening) [FLAC (image+.cue), lossless]
Рейтинг:
(голосов: 1)



[img]{THEME}/images/logopost.png[/img]



Исполнитель: Fausto Papetti
Альбом: Papetti Gold
Лейбл (Страна): Universal Classics & Jazz, Universal Music Italia s.r.l. (Italy)
Номер по каталогу: SET 984 8675 (984 8676~8)
Тип альбома: Compilation
Год выпуска: 2007
Жанр: Instrumental, Easy Listening
Формат: FLAC (image+.сue)
Битрейт: lossless
Log-файлы: присутствуют
Продолжительность:03:28:50

Треклист:

CD1:

Продолжительность:01:10:21

Tреклист:

01. Fausto Papetti - Yesterday (03:32)
02. Fausto Papetti - Sapore Di Sale (02:32)
03. Fausto Papetti - Strangers In The Night (03:33)
04. Fausto Papetti - Il Cielo In Una Stanza (02:35)
05. Fausto Papetti - Im In The Mood For Love (02:51)
06. Fausto Papetti - Brazil (02:56)
07. Fausto Papetti - Moon River (03:28)
08. Fausto Papetti - Un Uomo, Una Donna (04:23)
09. Fausto Papetti - Que Reste-t-il De Nos Amours (02:41)
10. Fausto Papetti - Samba Pa Ti (06:34)
11. Fausto Papetti - Memory (03:26)
12. Fausto Papetti - Je TAime Moi Non Plus (03:21)
13. Fausto Papetti - Mi Sono Innamorato Di Te (03:22)
14. Fausto Papetti - Con Te Partirò (04:16)
15. Fausto Papetti - Il Padrino (Tema DAmore) (03:17)
16. Fausto Papetti - Raindrops Keep Falling On My Head (03:36)
17. Fausto Papetti - La Mer (03:01)
18. Fausto Papetti - Coorcovado (03:21)
19. Fausto Papetti - What A Wonderful World (04:01)
20. Fausto Papetti - Senza Fine (03:25)

EAC Log ▼Text
Exact Audio Copy V0.99 prebeta 4 from 23. January 2008

EAC extraction logfile from 5. December 2008, 14:14

Fausto Papetti / Papetti Gold - Disc 1

Used drive : LITE-ON CD-RW SOHR-5238S Adapter: 1 ID: 1

Read mode : Secure
Utilize accurate stream : Yes
Defeat audio cache : Yes
Make use of C2 pointers : No

Read offset correction : 6
Overread into Lead-In and Lead-Out : No
Fill up missing offset samples with silence : Yes
Delete leading and trailing silent blocks : No
Null samples used in CRC calculations : Yes
Used interface : Installed external ASPI interface

Used output format : Internal WAV Routines
Sample format : 44.100 Hz; 16 Bit; Stereo


TOC of the extracted CD

Track | Start | Length | Start sector | End sector
---------------------------------------------------------
1 | 0:00.00 | 3:34.60 | 0 | 16109
2 | 3:34.60 | 2:34.37 | 16110 | 27696
3 | 6:09.22 | 3:35.35 | 27697 | 43856
4 | 9:44.57 | 2:37.22 | 43857 | 55653
5 | 12:22.04 | 2:53.00 | 55654 | 68628
6 | 15:15.04 | 2:58.72 | 68629 | 82050
7 | 18:14.01 | 3:30.11 | 82051 | 97811
8 | 21:44.12 | 4:25.62 | 97812 | 117748
9 | 26:09.74 | 2:43.12 | 117749 | 129985
 
82eeab5b735c65e3749686741814df258243c390(2007) Fausto Papetti / Papetti Gold (Instrumental, Easy Listening) [FLAC (image+.cue), lossless] (2007) Fausto Papetti / Papetti Gold (Instrumental, Easy Listening) [FLAC (image+.cue), lossless] " />

Аплоадер: Админ, дата: 24-04-2012, 11:53, торрент скачан: 359 раз

Понравилась раздача? Посмотрите эти:
  • (1989) Fausto Papetti / Magic Sax [Vol. 2] (Instrumental) [FLAC (tracks+.cu ...
  • (2007, сборник) VA - Sax. The Best / Лучшие 85 инструментальных композиций. ...
  • (2008) FAUSTO PAPETTI - Greatest Hits (instrumental. Саксафон) [mp3 320CBR] ...
  • (2004) THE METROPOLE ORCHESTRA, BBC BIG BAND - Romantic Melodies. Midnight ...
  • (1999 сборник) Romantic Collection vol.20 [MP3, 128CBR]
  • (2009,сборник) VA / Вечер у камина (Instrumental) [MP3,320/CBR]
  • (2009) Fausto Papetti / Greatest Hits (2CD) (Instrumental) [MP3 320/CBR]
  • (2007, сборник) VA / Sax & Sex Music Collection- Best (Instrumental) [MP3, ...
  • (2010, сборник) VA - Мелодии ушедшего века: Одинокий пастух (classical) [mp ...
  • (2011, сборник) VA / Мегахит 200 Италия (Pop) [MP3, 128 kbps/CBR]
  • (1967) Fausto Papetti / 8A Raccolta (Instrumental) [MP3, 256 kbps/CBR]
  • (1979) Fausto Papetti / 28a Raccolta (Instrumental) [MP3, 320 kbps/CBR]
  • (1983) Fausto Papetti / 37A Raccolta (Instrumental) [MP3, 320 kbps/CBR]
  • (Сборник, 1983) Fausto Papetti / 4 CD (Instrumental) [MP3, 320 kbps/CBR]
  • (1986) Fausto Papetti / Ultimate Breaks & Beats, Vol.11 (Instrumental) [MP3 ...
  • (2011, сборник) Fausto Papetti / Love & SAX (Instrumental) [MP3, 320 kbps/C ...
  • (1995-2000, сборник) VA / Romantic Collection - Box Set (Pop,Rock,Jazz,Disc ...
  • [саксофон] (2008 - Сборник) Romantic Collection Saxophone [MP3 256CBR]
  • (2008, сборник) VA - Romantic Collection. Light Erotic Songs (Музыка других ...
  • (2002, сборник) VA - Одинокий пастух Vol.4 - Галерея инструментальной музык ...
  • (2002, сборник) VA - Одинокий пастух Vol.4 - Галерея инструментальной музык ...
  • (2004 Сборник) VA / The Best Of Hits Instrumental vol.1 (instrumental) [rip ...
  • Сборник романтических рингтонов 2010 [MP3]
  • (1995-2009, сборник) VA - Super Instrumental Collection 6 (Instrumental) [M ...
  • (1988) Fausto Papetti / Grand Collection (POP, Jazz) [FLAC (image+.cue), lo ...
  • Информация
    Посетители, находящиеся в группе Гости, не могут оставлять комментарии к данной публикации.