вход на сайт

Имя пользователя :
Пароль :

Восстановление пароля Регистрация
(2010) Sungha Jung / Perfect Blue (Acoustic, Fingerstyle Guitar) [FLAC (tracks+.cue), lossless]
Рейтинг:
(голосов: 1)



[img]{THEME}/images/logopost.png[/img]



Исполнитель: Sungha Jung
Альбом: Perfect Blue
Страна: Южная Корея
Тип альбома: Студийный
Год выпуска: 2010
Жанр: Acoustic, Fingerstyle Guitar
Формат: FLAC (tracks+.сue)
Битрейт: lossless
Продолжительность: 00:52:40


01 ... Sungha Jung - Hazy Sunshine ... 04:42
02 ... Sungha Jung - Billie Jean ... 03:38
03 ... Sungha Jung - One Of Us ... 03:53
04 ... Sungha Jung - California Dreaming ... 02:39
05 ... Sungha Jung - Love Of My Life ... 03:46
06 ... Sungha Jung - Fields Of Gold ... 03:21
07 ... Sungha Jung - Superstition ... 04:32
08 ... Sungha Jung - Perfect Blue ... 03:14
09 ... Sungha Jung - More Than Words ... 03:16
10 ... Sungha Jung - Livin On A Prayer ... 03:32
11 ... Sungha Jung - A Whiter Shade Of Pale ... 03:23
12 ... Sungha Jung - Wake Me Up When September Ends ... 05:00
13 ... Sungha Jung - Twist In My Sobriety ... 03:33
14 ... Sungha Jung - I Believe I Can Fly ... 04:04

EAC log ▼TextX Lossless Decoder version 20100704 (120.4)
XLD extraction logfile from 2010-07-05 22:57:02 -0700
Sungha Jung / Perfect Blue
Used drive : MATSHITA DVD-R UJ-857E (revision ZF1E)
Use cdparanoia mode : YES (CDParanoia III 10.2 engine)
Disable audio cache : OK for the drive with cache less than 2750KB
Make use of C2 pointers : NO
Read offset correction : 102
Max retry count : 100
Gap status : Analyzed, Appended (except HTOA)
TOC of the extracted CD
Track | Start | Length | Start sector | End sector
---------------------------------------------------------
1 | 00:00:00 | 04:42:44 | 0 | 21193
2 | 04:42:44 | 03:38:59 | 21194 | 37602
3 | 08:21:28 | 03:53:41 | 37603 | 55118
4 | 12:14:69 | 02:39:04 | 55119 | 67047
5 | 14:53:73 | 03:46:52 | 67048 | 84049
6 | 18:40:50 | 03:21:58 | 84050 | 99182
7 | 22:02:33 | 04:32:27 | 99183 | 119609
8 | 26:34:60 | 03:14:13 | 119610 | 134172
9 | 29:48:73 | 03:16:19 | 134173 | 148891
10 | 33:05:17 | 03:32:42 | 148892 | 164833
11 | 36:37:59 | 03:23:43 | 164834 | 180101
12 | 40:01:27 | 05:00:54 | 180102 | 202655
13 | 45:02:06 | 03:33:42 | 202656 | 218672
14 | 48:35:48 | 04:04:35 | 218673 | 237007
All Tracks
Album gain : -5.59 dB
Peak : 0.988770
Track 01
Filename : /Users/varikahne/Desktop/01 Hazy Sunshine.flac
Pre-gap length : 00:02:00
Track gain : -5.41 dB
Peak : 0.988770
CRC32 hash (test run) : 63EB0560
CRC32 hash : 63EB0560
CRC32 hash (skip zero) : 1CC0DC93
AccurateRip signature : 2CCAD084
->Track not present in AccurateRip database.
Statistics
Read error : 0
Skipped (treated as error) : 0
Edge jitter error (maybe fixed) : 0
Atom jitter error (maybe fixed) : 0
Drift error (maybe fixed) : 0
Dropped bytes error (maybe fixed) : 0
Duplicated bytes error (maybe fixed) : 0
Inconsistency in error sectors : 0
Track 02
Filename : /Users/varikahne/Desktop/02 Billie Jean.flac
Track gain : -4.72 dB
Peak : 0.988739
CRC32 hash (test run) : 1FEF49A5
CRC32 hash : 1FEF49A5
CRC32 hash (skip zero) : 2CB6ADF9
AccurateRip signature : 3B0B6BA8
->Track not present in AccurateRip database.
Statistics
Read error : 0
Skipped (treated as error) : 0
Edge jitter error (maybe fixed) : 0
Atom jitter error (maybe fixed) : 0
Drift error (maybe fixed) : 0
Dropped bytes error (maybe fixed) : 0
Duplicated bytes error (maybe fixed) : 0
Inconsistency in error sectors : 0
Track 03
Filename : /Users/varikahne/Desktop/03 One Of Us.flac
Track gain : -4.17 dB
Peak : 0.988586
CRC32 hash (test run) : ACBBE8B9
CRC32 hash : ACBBE8B9
CRC32 hash (skip zero) : C6EA60FE
AccurateRip signature : FE73854A
->Track not present in AccurateRip database.
Statistics
Read error : 0
Skipped (treated as error) : 0
Edge jitter error (maybe fixed) : 0
Atom jitter error (maybe fixed) : 0
Drift error (maybe fixed) : 0
Dropped bytes error (maybe fixed) : 0
Duplicated bytes error (maybe fixed) : 0
Inconsistency in error sectors : 0
Track 04
Filename : /Users/varikahne/Desktop/04 California Dreaming.flac
Track gain : -5.91 dB
Peak : 0.988708
CRC32 hash (test run) : 2B93F1FD
CRC32 hash : 2B93F1FD
CRC32 hash (skip zero) : DA991055
Accur
7d684efcad909f1d17b4491bff8ea80aceb433dc(2010) Sungha Jung / Perfect Blue (Acoustic, Fingerstyle Guitar) [FLAC (tracks+.cue), lossless] (2010) Sungha Jung / Perfect Blue (Acoustic, Fingerstyle Guitar) [FLAC (tracks+.cue), lossless] " />

Аплоадер: Админ, дата: 23-01-2012, 11:40, торрент скачан: 359 раз

Понравилась раздача? Посмотрите эти:
  • (2013) Broken Haze / Vital Error (Glitch, Dubstep) [MP3 (tracks), 320 kbps ...
  • (2013) Kanye West | Yeezus (Rap|Experimental Hip-Hop) [FLAC (tracks+.cue), ...
  • (2012) The Lumineers / The Lumineers (Indie-folk, Folk-rock) [FLAC (tracks+ ...
  • (2012) Владимир Кузьмин / Endorfin (Русский Рок) [FLAC (image+.cue), lossle ...
  • (2007) SUNGHA JUNG - Guitar Prodigy (Guitar Fingerstyle) [MP3 320CBR]
  • (2010) Sungha Jung / Perfect Blue (Instrumental) [mp3, 320/CBR ]
  • (2010) Katie Melua / The House ( jazz-pop, vocal jazz) [FLAC (tracks + .cu ...
  • (2011) Moby / Destroyed (Electronic, Downtempo, Ambient) [FLAC (tracks+.cue ...
  • (2011) Sungha Jung / Irony (Acoustic guitar, Fingerstyle) [FLAC (tracks+.cu ...
  • (2012) Norah Jones / Little Broken Hearts (Vocal Jazz, Alternative Rock) [F ...
  • (2012) Hans Zimmer / The Dark Knight Rises (Film score) [FLAC (tracks+.cu ...
  • (2012) Mouse On Mars / Parastrophics (Leftfield, Abstract, Rhythmic Noise, ...
  • The KMPlayer 3.4.0.59 Final RePack/Portable by D!akov [Rus/Ukr/Eng]
  • (2010) Enduser / 1-3 (DnB, Dubstep, Breakcore) [FLAC (tracks+.cue), lossles ...
  • The KMPlayer 3.2.0.0 [RUS / ML]
  • (2012) The Fray / Scars & Stories (Alternative/Rock/Piano Rock) [FLAC (trac ...
  • The KMPlayer 3.2.0.19 Final + SkinPack [Rus|2012]
  • (2012) Unheilig / Lichter der Stadt (Limited Edition, 2CD) (Industrial, Got ...
  • (2012) Young Guns / Bones (Alternative Rock) [FLAC (tracks +.cue), lossless ...
  • (2012) Switchfoot / Vice Re-Verses (Remixes) (Alternative, Christian Rock, ...
  • (2011) 7eventh Time Down / Alive In You (Alternative Rock/Modern Rock/Chris ...
  • The KMPlayer 3.4 Beta (3.3.0.48) [ML]
  • The KMPlayer 3.4 Beta (3.3.0.49) [ML]
  • The KMPlayer 3.4.0.55 Final [ML]
  • The KMPlayer 3.4.0.59 Final [ML]
  • Информация
    Посетители, находящиеся в группе Гости, не могут оставлять комментарии к данной публикации.