вход на сайт

Имя пользователя :
Пароль :

Восстановление пароля Регистрация
(1995) Ennio Morricone / The Ennio Morricone Anthology: A Fistful of Film Music (2CD) (Instrumental) FLAC (image+.сue), lossless]
Рейтинг:
(голосов: 1)



[img]{THEME}/images/logopost.png[/img]



Исполнитель: Ennio Morricone
Альбом: The Ennio Morricone Anthology - A Fistful of Film Music
Страна: Италия
Тип альбома: Compilation
Год выпуска: 1995
Жанр: Instrumental
Формат:FLAC(image+.сue)
Битрейт: lossless
Продолжительность: 02:26:56

"The Ennio Morricone Anthology: A Fistful of Film Music (Disc 1 of 2)" ▼Tреклист:
01. Titoli (from A Fistful of Dollars) (2:57)
02. Theme from A Fistful Of Dollars (1:49)
03. Una Pistola per Ringo (A Pistol for Ringo) (2:21)
04. Il Ritorno di Ringo (The Return of Ringo) (2:16)
05. Lá Resa dei Conti (aka Sixty Seconds to What?) (For a Few Dollars More) (3:06)
06. Per Qualche Dollaro in Piú 9 (aka for a Few Dollars More) (For a Few Dollars... (2:51)
07. Navajo Joe (Original Main Title) (2:51)
08. The Good, The Bad and The Ugly (Main Title) (2:42)
09. The Ecstacy of Gold (The Good, The Bad and The Ugly) (3:24)
10. Uccellacci e Uccellini (The Hawks and the Sparrow) (2:29)
11. Algiers November 1, 1954 (The Battle of Algiers) (2:26)
12. Ad Ogni Costo (Grand Slam) (2:54)
13. Il Giardino delle Delizie (The Garden of Delights) (3:04)
14. The Big Gundown (The Big Gundown) (2:23)
15. Love Theme from Guns For San Sebastian (Reprise) (2:54)
16. Man With a Harmonica (Once Upon a Time in the West) (3:31)
17. Farewell to Cheyenne (Once Upon a Time in the West) (2:40)
18. Once upon a Time in the West (Once Upon a Time in the West) (3:45)
19. La Ballata di Hank McCain (The Ballad of Hank McCain) (Machine Gun McCain) (2:11)
20. Piume di Cristallo (The Bird with the Crystal Plumage) (5:16)
21. Indagine Su un Cittadino al di Sopra di Ogni Sospetto (Main Title) (Investig... (3:29)
22. Cittá Violenta (Titoli) (The Family) (2:26)
23. The Ballad of Sacco and Vanzetti, Pt. 2 (Sacco & Vanzetti) (5:26)
24. Heres to You (Sacco & Vanzetti) (3:11)

Лог создания рипа ▼Exact Audio Copy V0.99 prebeta 4 from 23. January 2008

Отчёт EAC об извлечении, выполненном 15. июня 2008, 14:31

Ennio Morricone / The Ennio Morricone Anthology: A Fistful of Film Music (Disc 1 of 2)

Дисковод: SONY DVD RW DRU-190S Adapter: 0 ID: 0

Режим чтения : Достоверность
Использование точного потока : Да
Отключение кэша аудио : Да
Использование указателей C2 : Нет

Коррекция смещения при чтении : 6
Способность читать области Lead-in и Lead-out : Нет
Заполнение пропущенных сэмплов тишиной : Да
Удаление блоков с тишиной в начале и конце : Нет
При вычислениях CRC использовались нулевые сэмплы : Да
Интерфейс : Встроенный Win32-интерфейс для Win NT/2000

Выходной формат : Внутренние WAV-операции
Формат сэмплов : 44.100 Гц; 16 бит; стерео

TOC извлечённого CD

Трек | Старт | Длительность | Начальный сектор | Конечный сектор
---------------------------------------------------------------------
1 | 0:00.32 | 2:58.38 | 32 | 13419
2 | 2:58.70 | 1:49.10 | 13420 | 21604
3 | 4:48.05 | 2:19.62 | 21605 | 32091
4 | 7:07.67 | 2:17.00 | 32092 | 42366
5 | 9:24.67 | 3:06.03 | 42367 | 56319
6 | 12:30.70 | 2:50.52 | 56320 | 69121
7 | 15:21.47 | 2:50.25 | 69122 | 81896
8 | 18:11.72 | 2:41.70 | 81897 | 94041
9 | 20:53.67 | 3:24.53 | 94042 | 109394
10 | 24:18.45 | 2:29.02 | 109395 | 120571
11 | 26:47.47 | 2:25.25 | 120572 | 131471
12 | 29:12.72 | 2:54.33 | 131472 | 144554
13 | 32:07.30 | 3:05.10 | 144555 | 158439
14 | 35:12.40 | 2:22.62 | 158440 | 169151
15 | 37:35.27 | 2:53.68 | 169152 | 182194
16 | 40:29.20 | 3:31.07 | 182195 | 198026
17 | 44:00.27 | 2:39.70 | 198027 | 210021
18 | 46:40.22 | 3:45.08 | 210022 | 226904
19 | 50:25.30 | 2:11.20 | 226905 | 236749
20 | 52:36.50 | 5:16.17 | 236750 | 260466
21 | 57:52.67 | 3:29.00 | 260467 | 276141
22 | 61:21.67 | 2:25.65 | 276142 | 287081
23 | 63:47.57 | 5:25.40 | 287082 | 311496
24 | 69:13.22 | 3:09.35 | 311497 | 325706

Характеристики диапазона извлечения и сообщения об ошибках

Выбранный диапазон

Имя файла C:UserscarpDesktopEnnio Morricone - The Ennio Mo
26b8528133c9f3631fdb5d9ed98d02d5879870b6(1995) Ennio Morricone / The Ennio Morricone Anthology: A Fistful of Film Music (2CD) (Instrumental) FLAC (image+.сue), lossless] (1995) Ennio Morricone / The Ennio Morricone Anthology: A Fistful of Film Music (2CD) (Instrumental) FLAC (image+.сue), lossless] " />

Аплоадер: Админ, дата: 8-01-2012, 12:28, торрент скачан: 359 раз

Понравилась раздача? Посмотрите эти:
  • (2013) Ennio Morricone / Лучшее предложение / La migliore offerta (Soundtra ...
  • (2000) ENNIO MORRICONE The very best of Ennio Morricone (Инструментальная м ...
  • (1966-2005)ЭННИО МОРРИКОНЕ / Ennio Morricone Дискография(Инструментальная м ...
  • (2003) VA - Kill Bill vol.1 Unreleased Tracks/Убить Билла Невыпущенные Трек ...
  • (1990-2001) Romantic Collection - 31 альбом (Разное) [MP3 CBR 192 kbit]
  • (2002) ENNIO MORRICONE - Anthology (Instrumental) [MP3 320CBR]
  • (2006) ENNIO MORRICONE / Love Themes (Инструментальная музыка, Саундтреки) ...
  • (2004) Ennio Morricone / So Sweet,So Sensual - Erotica Morricone (Инструмен ...
  • (1998) Ennio Morricone / Легенда о пианисте / Legend Of 1900 (OST) [MP3 32 ...
  • (2007) Ennio Morricone / The Platinum Colletion(3-CD) (Classical) [MP3, 320 ...
  • (2004) Ennio Morricone / Original Motion Picture Soundtrack The Good, The B ...
  • (2012) VA / Django Unchained OST [MP3, 320/CBR]
  • (2005) ENNIO MORRICONE / Эннио Морриконе - Gold Edition 50 Movie Themes Hit ...
  • (OMPS) Эннио Морриконе / Ennio Morricone — Once upon a time in America (Од ...
  • (2004) VA / Инструментальная музыка - Лучшие мировые хиты (Instrumental) [A ...
  • (2004) VA / Инструментальная музыка - Лучшие мировые хиты Vol.6 (2CD) (Inst ...
  • (1999) Ennio Morricone / Romantic Collection (Classical) [FLAC (image+.cue) ...
  • (2006) Батырхан Шукенов/ Отан Ана (Pop) [FLAC (image+.cue) lossless]
  • (2011) Blues Cousins / KGB Blues (Blues Rock) [FLAC (image+.cue), lossless] ...
  • (2008, 6xCD Box Set) VA - Live Image History Box/ Emotional & Relaxing (Jap ...
  • (1995) Юрий Шатунов / Ты помнишь... (Pop) [FLAC(image+.cue), lossless]
  • (1995) Yaki-Da / Pride (Pop, Eurodance) [FLAC (image+.сue), lossless]
  • (2000) Парк Горького (Gorky Park) / The Best (Glam Metal/Hard Rock) [FLAC ...
  • (2008) Студия 80 / Придуманный Мир (Pop) [FLAC (image+.cue), lossless]
  • (1999) Ennio Morricone / The Legend of 1900 (OST) [APE , (tracks+.cue), lo ...
  • Информация
    Посетители, находящиеся в группе Гости, не могут оставлять комментарии к данной публикации.